<?xml version="1.0" standalone="no"?>
<!DOCTYPE svg PUBLIC "-//W3C//DTD SVG 1.1//EN" "http://www.w3.org/Graphics/SVG/1.1/DTD/svg11.dtd" >
<!--
2013-9-30: Created.
-->
<svg>
<metadata>
Created by iconfont
</metadata>
<defs>

<font id="gld-bimface" horiz-adv-x="1024" >
  <font-face
    font-family="gld-bimface"
    font-weight="500"
    font-stretch="normal"
    units-per-em="1024"
    ascent="896"
    descent="-128"
  />
    <missing-glyph />
    
    <glyph glyph-name="third-person-lg" unicode="&#59368;" d="M592 864a112 112 0 0 0 78.336-192.032L676.032 672c78.656 0 125.312-55.264 132.48-137.28l23.424-211.168 0.064-6.24c-3.168-37.184-26.24-61.728-63.84-61.728-12.032 0-22.4 2.56-31.104 7.168l-0.864-278.4A79.424 79.424 0 0 0 655.936-96c-28.096 0-50.336 11.456-64.096 30.08-14.4-18.752-37.184-30.08-63.872-30.08-45.216 0-79.04 33.856-79.04 78.72l-0.064 280.64a65.248 65.248 0 0 0-32.352-7.872c-37.728 0-64.512 27.36-64.512 63.68l0.256 3.936 25.632 206.656C387.2 616.64 427.552 672 505.44 672l8.192-0.032A112 112 0 0 0 592 864z m84.032-224h-170.592c-64.48 0-89.056-51.392-95.712-113.632L384 319.168c0-18.016 11.84-31.68 32.512-31.68 20.608 0 29.696 13.024 31.68 31.872l32.576 194.496 0.16-531.104c0-27.072 19.328-46.752 47.04-46.752 27.68 0 48 18.592 48.416 48.096L575.936 256h32l0.448-271.808c0-27.072 15.68-48.192 47.552-48.192 27.712 0 48.288 21.28 48.288 48.352l1.6 529.504 30.72-194.08c2.592-19.264 10.976-32.192 31.616-32.192s30.208 11.776 31.968 32.448l-23.424 211.136C771.296 593.088 740.448 640 676.032 640zM384 32v-32H96v32h288z m512 0v-32h-96v32h96zM288 352v-32H192v32h96z m304 480a80 80 0 1 1 0-159.968A80 80 0 0 1 592 832z"  horiz-adv-x="1024" />

    
    <glyph glyph-name="reverse-lg" unicode="&#58983;" d="M128 768h192v-32H160v-160H128V768z m0-736h192v32H160v160H128v-192zM864 768h-192v-32h160v-160h32V768z m0-736h-192v32h160v160h32v-192zM566.016 563.52l19.968 24.96L768 448H256v32h420.768zM457.984 236.48l-19.968-24.96L256 352h512v-32H347.232z"  horiz-adv-x="1024" />

    
    <glyph glyph-name="section-plane-pick" unicode="&#59366;" d="M512 480l336-208-112-64 96-160-96-64-96 160-128-80V480z m32-57.44v-300.832l106.688 66.688 95.456-159.136 42.688 28.448-97.088 161.824 93.632 53.568L544 422.56zM640 800v-288h-32V739.616L288 533.984V114.24l128 82.272v-38.88l-160-103.776V550.944L640 800z"  horiz-adv-x="1024" />

    
    <glyph glyph-name="split-drawings" unicode="&#59360;" d="M896 512v-448H320V512h576z m-160-32H352v-384h384V480z m128-192h-96v-192h96v192zM736 672v-96h-32V640H192v-384h64v-32H160V672h576z m128-288h-96v-64h96v64z m0 96h-96v-64h96v64z"  horiz-adv-x="1024" />

    
    <glyph glyph-name="export" unicode="&#59359;" d="M384 832v-64H128v-768h768v256h64v-320H64V832h320z m576 0v-384h-64V722.816l-480-480.064-45.248 45.248L850.56 768H576V832h384z"  horiz-adv-x="1024" />

    
    <glyph glyph-name="arrowup" unicode="&#59356;" d="M937.642667 188.842667L511.317333 614.826667 450.730667 554.666667 85.333333 188.928l60.16-60.330667L511.317333 494.08l365.994667-365.482667z"  horiz-adv-x="1024" />

    
    <glyph glyph-name="arrowdown" unicode="&#59357;" d="M937.642667 579.157333L511.317333 153.17333299999996 450.730667 213.33333300000004 85.333333 579.072l60.16 60.330667L511.317333 273.91999999999996l365.994667 365.482667z"  horiz-adv-x="1024" />

    
    <glyph glyph-name="search" unicode="&#59303;" d="M447.99808 768c75.328 0 148.544-26.688 206.144-75.2a318.976 318.976 0 0 0 98.944-341.568 318.72 318.72 0 0 0-304.896-223.36c-32.64 0-65.216 5.056-96.768 15.04a319.04 319.04 0 0 0-222.144 277.632 319.04 319.04 0 0 0 171.456 311.552c45.504 23.552 96 35.84 147.264 35.904z m0 128A447.872 447.872 0 0 1 1.72608 409.6 448 448 0 1 1 447.99808 896zM750.27008 52.992l90.496 90.496 180.992-180.992L931.26208-128z"  horiz-adv-x="1024" />

    
    <glyph glyph-name="translation" unicode="&#58900;" d="M512 320v-160h96l-112-128-112 128h96v160h32z m224 192l128-112-128-112v96.032L576 384v32l160 0.032V512zM256 512v-96h160v-32H256v-96l-128 112L256 512z m240 256L608 640h-96v-160h-32V640h-96l112 128z"  horiz-adv-x="1056" />

    
    <glyph glyph-name="rotation" unicode="&#58899;" d="M480 704h32v-352h-32V704z m0-544h32v-128h-32v128zM672 396L832 416l-14.176-160zM482.976 240.03200000000004c-184.384 0-336 83.392-336 192 0 97.344 122.24 175.36 282.944 189.664l9.888 0.8 2.304-31.904c-150.976-10.912-263.136-80.704-263.136-158.56 0-85.76 134.944-160 304-160 64.096 0 125.184 10.688 176.384 30.208 46.08 17.6 82.208 41.6 104.032 68.8l4.48 5.92 26.016-18.624c-25.248-35.328-68.288-65.088-123.136-85.984-54.944-20.96-119.872-32.32-187.776-32.32z"  horiz-adv-x="1056" />

    
    <glyph glyph-name="scaling" unicode="&#58898;" d="M480 352v-320H160V352h320z m-32-32H192v-256h256v256zM836.672 731.328l22.656-22.656-224-224-22.656 22.656zM160 416h32V704h352V736H160zM544 64h288V416h32v-384H544zM672 736h192v-192h-32V704h-160z"  horiz-adv-x="1056" />

    
    <glyph glyph-name="room-height" unicode="&#59354;" d="M896 128v-32H96v32h800zM496 640l112-128h-96v-256h96l-112-128-112 128h96v256h-96l112 128zM896 672v-32H96V672h800z"  horiz-adv-x="1024" />

    
    <glyph glyph-name="next" unicode="&#58897;" d="M404.64 203.29600000000005l169.28 169.44-169.28 169.408 22.656 22.592 169.28-169.28 0.064 0.032 22.624-22.72-192-192.128z"  horiz-adv-x="1024" />

    
    <glyph glyph-name="previous" unicode="&#58896;" d="M619.264 203.29600000000005l-169.28 169.44 169.28 169.408-22.656 22.592-169.28-169.28-0.064 0.032-22.624-22.72 192-192.128z"  horiz-adv-x="1024" />

    
    <glyph glyph-name="drag" unicode="&#58895;" d="M608 704a64 64 0 0 0 63.84-59.2L672 640v-192h-32V640a32 32 0 0 1-63.776 3.744L576 640h-32a64 64 0 0 0 64 64zM416 704a64 64 0 0 0 63.84-59.2L480 640v-192h-32V640a32 32 0 0 1-63.776 3.744L384 640v-192h-32V640a64 64 0 0 0 64 64zM320 512a64 64 0 0 0 63.84-59.2L384 448v-160h-32v160a32 32 0 0 1-63.776 3.744L288 448v-160H256v160a64 64 0 0 0 64 64zM704 624a64 64 0 0 0 63.84-59.2l0.16-4.8V288h-32v272a32 32 0 0 1-63.776 3.744L672 560h-32a64 64 0 0 0 64 64zM512 32a256 256 0 0 1 255.872 248L768 288h-32a224 224 0 0 0-447.872-7.68L288 288H256a256 256 0 0 1 256-256zM512 768a64 64 0 0 0 63.84-59.2L576 704v-256h-32V704a32 32 0 0 1-63.776 3.744L480 704v-80h-32V704a64 64 0 0 0 64 64z"  horiz-adv-x="1024" />

    
    <glyph glyph-name="zoom-out" unicode="&#58894;" d="M480 736a288 288 0 1 1 0-576 288 288 0 0 1 0 576z m0-32a256 256 0 1 0 0-512 256 256 0 0 0 0 512zM640 480H320v-64h320zM651.328 235.32799999999997l-22.656-22.656 176-176 22.656 22.656z"  horiz-adv-x="1024" />

    
    <glyph glyph-name="zoom-in" unicode="&#58893;" d="M480 736a288 288 0 1 1 0-576 288 288 0 0 1 0 576z m0-32a256 256 0 1 0 0-512 256 256 0 0 0 0 512zM640 480H320v-64h320zM448 608v-320h64V608zM651.328 235.32799999999997l-22.656-22.656 176-176 22.656 22.656z"  horiz-adv-x="1024" />

    
    <glyph glyph-name="full-screen" unicode="&#58892;" d="M608 704v-32h169.6l-227.2-227.2 22.4-22.4L800 649.6V480h32V704h-224z m-156.8-358.4L224 118.39999999999998V288H192v-224h224v32H246.4l227.2 227.2-22.4 22.4zM896 768v-768H128V768h768m32 32H96v-832h832V800z"  horiz-adv-x="1024" />

    
    <glyph glyph-name="measure-settings" unicode="&#59352;" d="M607.744 702.72a318.208 318.208 0 0 0 116.8-65.76c9.728-8.544 12.16-22.656 5.888-33.92-6.048-10.88-9.184-23.136-9.152-35.552a74.752 74.752 0 0 1 74.88-74.432 27.84 27.84 0 0 0 27.488-21.28 316.096 316.096 0 0 0 1.696-136.768 27.68 27.68 0 0 0-24.32-21.856l-4.832-0.128a74.816 74.816 0 0 1-65.408-38.08 73.92 73.92 0 0 1 1.664-75.296 27.584 27.584 0 0 0-4.8-35.04 318.4 318.4 0 0 0-115.584-67.2 27.744 27.744 0 0 0-33.44 13.664A75.008 75.008 0 0 1 512 151.488c-28.096 0-53.792-15.584-66.656-40.416a27.776 27.776 0 0 0-33.376-13.664 322.464 322.464 0 0 0-118.88 70.24 27.36 27.36 0 0 0-5.056 33.888 74.048 74.048 0 0 1-0.128 74.368 74.944 74.944 0 0 1-64.864 37.12l-19.168-0.864-3.584 15.36a316.8 316.8 0 0 0 0.064 144.288 27.776 27.776 0 0 0 23.872 21.12l3.52 0.16a74.784 74.784 0 0 1 74.976 74.4 72.864 72.864 0 0 1-9.152 35.52 27.392 27.392 0 0 0 5.92 33.952 318.208 318.208 0 0 0 116.736 65.792 27.904 27.904 0 0 0 32-11.936A74.944 74.944 0 0 1 512 655.392c26.016 0 50.144 13.44 63.744 35.424a27.904 27.904 0 0 0 32 11.936z m-6.624-31.488l-1.728-2.656A106.976 106.976 0 0 0 512 623.392c-34.88 0-67.456 16.96-87.36 45.184l-1.792 2.656-8.672-2.912A286.336 286.336 0 0 1 329.888 620.8l-6.624-5.568 1.76-3.52c5.344-11.52 8.544-23.968 9.44-36.64l0.256-7.616a106.784 106.784 0 0 0-101.44-106.208l-2.496-0.064-1.76-8.352a284.8 284.8 0 0 1-0.032-106.4l0.32-1.568h0.416c33.28-2.08 63.744-19.52 82.24-47.168l3.584-5.664c17.952-30.848 19.168-68.48 3.488-100.352l-1.6-2.912 5.952-5.312a290.464 290.464 0 0 1 87.776-51.84l7.52-2.656 1.472 2.592a107.008 107.008 0 0 0 85.216 51.744l6.624 0.192c37.792 0 72.64-19.84 91.904-52.032l1.376-2.528 8.32 2.88a286.368 286.368 0 0 1 83.328 48.48l6.496 5.664-1.76 3.072a105.92 105.92 0 0 0-2.08 95.232l3.296 6.4a106.752 106.752 0 0 0 86.528 54.144l5.216 0.192 1.664 8.768a283.968 283.968 0 0 1-1.216 98.464l-1.888 8.928-3.072 0.096a106.752 106.752 0 0 0-100.672 100.128l-0.16 6.016a104.832 104.832 0 0 0 9.696 44.352l1.76 3.456-6.72 5.664a286.208 286.208 0 0 1-84.16 47.456l-8.736 2.912z m-92-127.264l6.976-0.032a128 128 0 1 0-8.192-255.872 128 128 0 0 0 8.192 255.872z m5.952-32a96 96 0 1 1-6.144-191.904 96 96 0 0 1 6.144 191.872z"  horiz-adv-x="1024" />

    
    <glyph glyph-name="scene-front" unicode="&#58890;" d="M608 480v-352H256V480h352m32 32H224v-416h416V512zM768 640v-352H416V640h352m32 32H384v-416h416V672zM768 640v-371.2L627.2 128H256V499.2L396.8 640H768m32 32H384l-160-160v-416h416l160 160V672zM755.2 640l-128-128H268.8l128 128h358.4M800 672H384l-160-160v-32h416l160 160V672zM755.2 256l-128-128H268.8l128 128h358.4m44.8 32H384l-160-160v-32h416l160 160v32zM256 480h352v-352H256z"  horiz-adv-x="1024" />

    
    <glyph glyph-name="scene-back" unicode="&#58886;" d="M416 640h352v-352H416zM608 480v-352H256V480h352m32 32H224v-416h416V512zM768 640v-352H416V640h352m32 32H384v-416h416V672zM768 640v-371.2L627.2 128H256V499.2L396.8 640H768m32 32H384l-160-160v-416h416l160 160V672zM755.2 640l-128-128H268.8l128 128h358.4M800 672H384l-160-160v-32h416l160 160V672zM755.2 256l-128-128H268.8l128 128h358.4m44.8 32H384l-160-160v-32h416l160 160v32z"  horiz-adv-x="1024" />

    
    <glyph glyph-name="scene-left" unicode="&#58885;" d="M224 512l160 160v-384l-160-160zM608 480v-352H256V480h352m32 32H224v-416h416V512zM768 640v-352H416V640h352m32 32H384v-416h416V672zM768 640v-371.2L627.2 128H256V499.2L396.8 640H768m32 32H384l-160-160v-416h416l160 160V672zM755.2 640l-128-128H268.8l128 128h358.4M800 672H384l-160-160v-32h416l160 160V672zM755.2 256l-128-128H268.8l128 128h358.4m44.8 32H384l-160-160v-32h416l160 160v32z"  horiz-adv-x="1024" />

    
    <glyph glyph-name="scene-right" unicode="&#58884;" d="M608 480v-352H256V480h352m32 32H224v-416h416V512zM768 640v-352H416V640h352m32 32H384v-416h416V672zM755.2 640l-128-128H268.8l128 128h358.4M800 672H384l-160-160v-32h416l160 160V672zM755.2 256l-128-128H268.8l128 128h358.4m44.8 32H384l-160-160v-32h416l160 160v32zM640 480l128 128v-339.2l-128-128z"  horiz-adv-x="1024" />

    
    <glyph glyph-name="scene-top" unicode="&#58882;" d="M608 480v-352H256V480h352m32 32H224v-416h416V512zM768 640v-352H416V640h352m32 32H384v-416h416V672zM755.2 640l-128-128H268.8l128 128h358.4M800 672H384l-160-160v-32h416l160 160V672zM755.2 256l-128-128H268.8l128 128h358.4m44.8 32H384l-160-160v-32h416l160 160v32zM268.8 512l128 128h358.4l-128-128z"  horiz-adv-x="1024" />

    
    <glyph glyph-name="scene-bottom" unicode="&#58881;" d="M640 128l160 160H416l-160-160zM608 480v-352H256V480h352m32 32H224v-416h416V512zM768 640v-352H416V640h352m32 32H384v-416h416V672zM768 640v-371.2L627.2 128H256V499.2L396.8 640H768m32 32H384l-160-160v-416h416l160 160V672zM755.2 640l-128-128H268.8l128 128h358.4M800 672H384l-160-160v-32h416l160 160V672zM755.2 256l-128-128H268.8l128 128h358.4m44.8 32H384l-160-160v-32h416l160 160v32z"  horiz-adv-x="1024" />

    
    <glyph glyph-name="scene" unicode="&#58880;" d="M608 480v-352H256V480h352m32 32H224v-416h416V512zM768 640v-352H416V640h352m32 32H384v-416h416V672zM768 640v-371.2L627.2 128H256V499.2L396.8 640H768m32 32H384l-160-160v-416h416l160 160V672zM755.2 640l-128-128H268.8l128 128h358.4M800 672H384l-160-160v-32h416l160 160V672zM755.2 256l-128-128H268.8l128 128h358.4m44.8 32H384l-160-160v-32h416l160 160v32z"  horiz-adv-x="1024" />

    
    <glyph glyph-name="arrow-right" unicode="&#59310;" d="M538.624 429.824L150.698667 42.75199999999995l60.245333-60.416 449.024 448L210.432 870.997333l-59.733333-60.928zM879.957333 429.824L492.032 42.75199999999995l60.245333-60.416 449.024 448L551.765333 870.997333l-59.733333-60.928z"  horiz-adv-x="1024" />

    
    <glyph glyph-name="BIMFACE-logo" unicode="&#59344;" d="M13.23008 872.6528l172.2368-172.2368V872.6528zM0 687.18592h172.19584L0 859.38176zM202.01472 872.6528v-172.2368L374.21056 872.6528zM387.4816 687.18592V859.38176L215.2448 687.18592zM417.30048 872.6528l172.19584-172.2368V872.6528zM404.02944 859.38176v-172.19584h172.2368zM606.04416 872.6528v-172.2368L778.28096 872.6528zM791.51104 687.18592V859.38176L619.3152 687.18592zM821.32992 872.6528l172.19584-172.2368V872.6528zM808.05888 859.38176v-172.19584h172.2368zM1010.0736 859.38176v-172.19584h172.2368zM1023.34464 670.59712l172.19584-172.19584V670.59712zM1010.0736 657.36704v-172.19584h172.2368zM1109.44256 382.48448l86.09792 86.09792h-172.19584zM1010.0736 455.35232v-172.19584h172.2368zM1010.0736 266.56768v-172.19584l172.2368 172.19584zM1195.54048 81.14176V253.3376l-172.19584-172.19584zM1010.0736 64.55296v-172.19584l172.2368 172.19584zM808.05888 64.55296v-172.19584l172.2368 172.19584zM821.32992-120.91392h172.19584v172.2368zM619.3152 64.55296l172.19584-172.19584V64.512zM606.04416-120.91392h172.2368l-172.2368 172.2368zM404.02944 64.55296v-172.19584L576.3072 64.512zM417.30048-120.91392h172.19584v172.2368zM808.05888 468.5824v-172.19584l172.2368 172.19584zM993.52576 283.15648v172.19584l-172.19584-172.19584zM791.51104 296.3456v172.2368H619.3152zM606.04416 455.35232v-172.19584h172.2368zM404.02944 468.5824v-172.19584l172.2368 172.19584zM589.49632 283.15648v172.19584l-172.19584-172.19584zM0 670.63808v-172.2368l172.19584 172.2368zM13.23008 485.1712h172.2368V657.36704zM13.23008 468.62336l172.2368-172.2368v172.2368zM0 283.15648h172.19584L0 455.35232zM0 266.56768v-172.19584l172.19584 172.19584zM13.23008 81.14176h172.2368V253.3376zM13.23008 64.55296l172.2368-172.19584V64.512zM0-120.91392h172.19584L0 51.32288zM1314.77504 872.6528l172.19584-172.2368V872.6528zM1301.54496 687.18592h172.19584L1301.54496 859.38176zM1473.7408 670.59712l-172.19584-172.19584V670.59712zM1486.97088 485.1712H1314.816l172.19584 172.19584zM1314.77504 468.5824l172.19584-172.19584v172.19584zM1301.54496 283.15648h172.19584l-172.19584 172.19584zM1473.7408 266.56768l-172.19584-172.19584v172.19584zM1486.97088 81.1008H1314.816l172.19584 172.2368zM1314.77504 64.55296l172.19584-172.19584V64.512zM1301.54496-120.91392h172.19584l-172.19584 172.2368zM1606.20544 872.6528l172.2368-172.2368 110.592 172.19584zM2099.32288 372.5312l175.39072-175.39072 112.72192 175.43168zM2389.4016 336.11776l-102.52288-159.58016h215.08096l-102.52288 159.58016-4.99712 7.7824M1592.9344 859.38176v-172.19584h172.2368zM1592.9344 670.59712v-172.19584l172.2368 172.19584zM2083.10272 389.12V670.59712h-281.47712zM1794.99008 687.18592h288.11264L1909.18656 857.7024zM2099.69152 670.59712v-282.17344h282.13248zM1778.44224 485.1712V657.36704l-172.2368-172.19584zM1778.44224 296.3456v172.2368h-172.2368zM1592.9344 455.35232v-172.19584h172.2368zM1592.9344 266.56768v-172.19584l172.2368 172.19584zM1778.44224 81.14176V253.3376l-172.2368-172.19584zM1606.20544 64.55296l172.2368-172.19584V64.512zM1592.9344-120.91392h172.2368l-172.19584 172.2368zM2899.7632 872.6528l110.63296-172.2368L3182.592 872.6528zM2514.1248 197.14048l175.39072 175.39072h-288.11264zM3023.6672 687.18592h172.19584V859.38176zM3195.86304 498.40128V670.59712H3023.6672zM2705.73568 389.12l281.47712 281.47712h-281.47712zM2705.73568 687.18592h288.11264L2879.65184 857.7024zM2689.14688 670.59712l-282.13248-282.17344h282.13248zM3010.39616 657.36704v-172.19584H3182.592zM3010.39616 296.3456l172.19584 172.2368h-172.19584zM3195.86304 283.15648v172.19584l-172.19584-172.19584zM3195.86304 94.37184v172.19584H3023.6672zM3182.592 81.14176l-172.19584 172.19584v-172.19584zM3010.39616 64.55296v-172.19584L3182.592 64.512zM3023.6672-120.91392h172.19584v172.2368zM4172.84096 365.93664c0-27.4432-22.24128-49.68448-49.68448-49.68448M4123.15648 415.62112c27.4432 0 49.68448-22.24128 49.68448-49.68448M6010.88-21.54496H5504.2048a139.10016 139.10016 0 0 0-139.10016 139.10016V634.18368a139.10016 139.10016 0 0 0 139.10016 139.10016v-0.08192l457.03168 0.08192h49.68448a49.68448 49.68448 0 0 1 0 99.36896H5504.2048a238.46912 238.46912 0 0 1-238.46912-238.46912v-516.62848a238.46912 238.46912 0 0 1 238.46912-238.46912H6010.88a49.68448 49.68448 0 0 1 0 99.36896M4123.15648 415.62112H3477.34016V673.91488a99.36896 99.36896 0 0 0 99.36896 99.36896h546.65216a49.64352 49.64352 0 0 1-0.2048 99.36896H3576.70912a198.73792 198.73792 0 0 1-198.69696-198.73792V-118.5792h99.328V316.25216h645.81632a49.68448 49.68448 0 1 1 0 99.36896M5121.88416-50.05312L4704.78848 835.70688l-0.4096 0.94208v0.04096a59.5968 59.5968 0 0 1-109.3632 0v-0.04096l-0.28672-0.69632-417.13664-886.00576a49.68448 49.68448 0 0 1 89.9072-42.31168l382.23872 812.35968 382.23872-812.35968a49.68448 49.68448 0 0 1 89.9072 42.31168M6855.39328 316.25216h49.68448a49.68448 49.68448 0 0 1 0 99.36896h-645.81632V673.91488a99.36896 99.36896 0 0 0 99.36896 99.36896v0.12288l99.328-0.12288h447.11936a49.68448 49.68448 0 0 1 0 99.36896H6358.6304a198.69696 198.69696 0 0 1-198.69696-198.73792v-596.09088a198.69696 198.69696 0 0 1 198.656-198.73792H6905.11872a49.68448 49.68448 0 0 1 0 99.36896H6358.6304a99.36896 99.36896 0 0 0-99.36896 99.36896v238.42816h596.13184zM4550.49216 78.27456l99.24608 237.9776 99.20512-237.9776z"  horiz-adv-x="6963" />

    
    <glyph glyph-name="warning-1" unicode="&#59300;" d="M469.333333 213.333333h85.333334v-85.333333h-85.333334v85.333333z m0 384h85.333334v-341.333333h-85.333334V597.333333z m42.666667-640c235.648 0 426.666667 191.018667 426.666667 426.666667S747.648 810.666667 512 810.666667 85.333333 619.648 85.333333 384s191.018667-426.666667 426.666667-426.666667z m0-85.333333C229.248-128 0 101.248 0 384S229.248 896 512 896s512-229.248 512-512-229.248-512-512-512z"  horiz-adv-x="1024" />

    
    <glyph glyph-name="room-addnode" unicode="&#59340;" d="M224 544v-257.6a80 80 0 0 0 64-77.536V224h256.704A176.064 176.064 0 0 0 704 383.296L704 544h32v-160.704a176 176 0 1 0-191.296-191.328L288 192l-0.032 15.136-0.128-4.384A80 80 0 1 0 192 286.4V544h32z m496-192a144 144 0 1 1 0-288 144 144 0 0 1 0 288z m16-64l-0.032-64H800v-32h-64.032L736 128h-32l-0.032 64H640v32h63.968L704 288h32zM208 256a48 48 0 1 1 0-96 48 48 0 0 1 0 96z m0 448A80 80 0 0 0 288 624.864V640h352v-32H288l-0.032 15.136-0.128-4.384A80 80 0 1 0 208 704z m512 0a80 80 0 1 0 0-160 80 80 0 0 0 0 160z m-512-32a48 48 0 1 1 0-96 48 48 0 0 1 0 96z m512 0a48 48 0 1 1 0-96 48 48 0 0 1 0 96z"  horiz-adv-x="1024" />

    
    <glyph glyph-name="room-deletenode" unicode="&#59341;" d="M224 544v-257.6a80 80 0 0 0 64-77.536V224h256.704A176.064 176.064 0 0 0 704 383.296L704 544h32v-160.704a176 176 0 1 0-191.296-191.328L288 192l-0.032 15.136-0.128-4.384A80 80 0 1 0 192 286.4V544h32z m496-192a144 144 0 1 1 0-288 144 144 0 0 1 0 288z m-512-96a48 48 0 1 1 0-96 48 48 0 0 1 0 96zM800 224v-32h-160v32h160zM208 704A80 80 0 0 0 288 624.864V640h352v-32H288l-0.032 15.136-0.128-4.384A80 80 0 1 0 208 704z m512 0a80 80 0 1 0 0-160 80 80 0 0 0 0 160z m-512-32a48 48 0 1 1 0-96 48 48 0 0 1 0 96z m512 0a48 48 0 1 1 0-96 48 48 0 0 1 0 96z"  horiz-adv-x="1024" />

    
    <glyph glyph-name="room-dragnode" unicode="&#59342;" d="M512 256v-128h96l-112-128-112 128h96v128h32z m256 256l128-112-128-112v96.032L640 384v32l128 0.032V512zM224 512v-96h128v-32H224v-96l-128 112L224 512z m272-32a80 80 0 1 0 0-160 80 80 0 0 0 0 160z m0-32a48 48 0 1 1 0-96 48 48 0 0 1 0 96z m0 352L608 672h-96v-128h-32V672h-96l112 128z"  horiz-adv-x="1024" />

    
    <glyph glyph-name="success--fill" unicode="&#59290;" d="M512-128A512 512 0 1 0 512 896a512 512 0 0 0 0-1024zM288 448L192 352 416 128 832 544 736 640l-320-320-128 128z"  horiz-adv-x="1024" />

    
    <glyph glyph-name="information--fill" unicode="&#59292;" d="M512-128A512 512 0 1 0 512 896a512 512 0 0 0 0-1024z m64 320V512H384v-64h64v-256H384v-64h256v64H576zM448 704v-128h128V704H448z"  horiz-adv-x="1024" />

    
    <glyph glyph-name="warning--fill" unicode="&#59293;" d="M512-128A512 512 0 1 0 512 896a512 512 0 0 0 0-1024zM448 704v-384h128V704H448z m0-448v-128h128v128H448z"  horiz-adv-x="1024" />

    
    <glyph glyph-name="fitpanel" unicode="&#59339;" d="M768 640v-448h-96v32h64V608H352v-64h-32V640h448zM608 480v-320H288V480h320z m-35.552-35.552H323.52v-248.896h248.896V444.48z"  horiz-adv-x="1024" />

    
    <glyph glyph-name="explode" unicode="&#59312;" d="M832 608l-320-160L192 608l320 160 320-160zM512 732.2239999999999L263.552 608 512 483.776 760.448 608 512 732.2239999999999zM128 512l320-160v-352L128 160V512z m32-51.776v-280.448l256-128v280.448l-256 128zM896 160l-320-160V352l320 160z"  horiz-adv-x="1024" />

    
    <glyph glyph-name="n-ployline" unicode="&#59308;" d="M128 304.896l683.136-239.104 10.592 30.208-596.864 208.896 640.128 224.032L453.696 672l-10.528-30.208 324.704-112.96z"  horiz-adv-x="1024" />

    
    <glyph glyph-name="elevation" unicode="&#59306;" d="M224 544h640v-32h-284L384 288l-224 256h64z m313.472-32H230.528L384 336.60799999999995 537.472 512zM640 224v-32H160v32z"  horiz-adv-x="1024" />

    
    <glyph glyph-name="rotate-horizontal" unicode="&#59286;" d="M224 384v-32h320v32zM704 384v-32h96v32zM512 167.52v-34.4c73.024 23.712 128 127.04 128 250.88 0 141.376-71.648 256-160 256-74.56 0-137.184-81.6-154.944-192h32.416c16.448 93.664 67.648 160 122.528 160 66.72 0 128-98.048 128-224 0-105.376-42.88-191.232-96-216.48zM512 256l-16-122.88 128 10.88z"  horiz-adv-x="1024" />

    
    <glyph glyph-name="rotate-vertical" unicode="&#59287;" d="M512 672h32v-320h-32zM512 192h32v-96h-32zM728.48 384h34.4c-23.712-73.024-127.04-128-250.88-128-141.376 0-256 71.648-256 160 0 74.56 81.6 137.184 192 154.944v-32.416c-93.664-16.448-160-67.648-160-122.528 0-66.72 98.048-128 224-128 105.376 0 191.232 42.88 216.48 96zM640 384l122.88 16-10.88-128z"  horiz-adv-x="1024" />

    
    <glyph glyph-name="hide-slice" unicode="&#59288;" d="M586.72 377.15200000000004l-25.664 25.664A241.408 241.408 0 0 0 640 416c94.272 0 179.584-53.344 256-160-28.8-40.224-58.88-72.832-90.24-97.92l-22.72 22.784c24.96 19.52 49.312 44.512 73.056 75.136-66.912 86.304-138.688 128-216.096 128-18.048 0-35.84-2.24-53.28-6.848z m-89.728-46.016c-24.992-19.52-49.344-44.512-73.088-75.136 66.912-86.304 138.688-128 216.096-128 18.048 0 35.84 2.24 53.28 6.848l25.664-25.664c-25.6-8.8-51.904-13.184-78.944-13.184-94.272 0-179.584 53.344-256 160 28.8 40.224 58.88 72.832 90.24 97.92l22.72-22.784h0.032zM703.872 260a64 64 0 0 1-59.84 59.872l-28.896 28.864a96.128 96.128 0 0 0 117.6-117.6l-28.864 28.864z m-127.744-8a64 64 0 0 1 59.84-59.872l28.896-28.864a96.128 96.128 0 0 0-117.6 117.6l28.864-28.864zM480 438.624L819.424 99.20000000000005l-22.656-22.624L457.376 416zM384 160v-32H128V704h640v-256h-32V672H160v-512z"  horiz-adv-x="1024" />

    
    <glyph glyph-name="distance-min" unicode="&#59284;" d="M224 192v-64h608v64H224z m-32 32h672v-128H192v128z m64 192h512v-32H256v32z m64 224h128v-32h-32v-96h-32V608h-32v-96h-32V640z m128-128V608h32v-96h-32z m96 160v-32h-32V672h32z m0-64v-96h-32V608h32z m128-96V608h32v-96h-32z m-64 96v-96h-32V640h96v-32h-64zM192 520.4159999999999l29.44 12.608L278.464 400l-56.96-133.024-29.44 12.608L243.616 400 192 520.4159999999999z m646.432 0l-29.44 12.608-56.96-133.024 56.96-133.024 29.44 12.608-51.616 120.416 51.648 120.416h-0.032z"  horiz-adv-x="1024" />

    
    <glyph glyph-name="area" unicode="&#59285;" d="M841.6 192L550.4 608H192v-416M160 640h409.6L896 160H160V640z m0 32M336 550.4l22.4-22.4-86.4-86.4-22.4 22.4 86.4 86.4z m160 0l22.4-22.4-246.4-246.4-22.4 22.4 246.4 246.4z m64-96l22.4-22.4-182.4-182.4-22.4 22.4 182.4 182.4z m64-96l22.4-22.4-86.4-86.4-22.4 22.4 86.4 86.4z m64 0"  horiz-adv-x="1024" />

    
    <glyph glyph-name="fittobox" unicode="&#59282;" d="M496 672L256 544v-256l240-128 240 128v256l-240 128z m198.4-137.6l-198.4-102.4-195.2 102.4 195.2 102.4 198.4-102.4zM288 313.6v192l192-99.2v-201.6l-192 99.2v9.6z m416-9.6l-192-99.2v201.6l192 99.2v-201.6zM352 768H128v-224h32V736h192zM352 32H128v224h32v-192h192zM640 768h224v-224h-32V736h-192zM640 32h224v224h-32v-192h-192z"  horiz-adv-x="1024" />

    
    <glyph glyph-name="delete" unicode="&#59154;" d="M640 704v64h-256v-64h-256v-64h768v64zM192 576v-544c0-52.928 43.072-96 96-96h448c52.928 0 96 43.072 96 96v544h-640zM256 64v448h128v-448h-128zM448 64v448h128v-448h-128zM768 64h-128v448h128v-448z"  horiz-adv-x="1024" />

    
    <glyph glyph-name="route" unicode="&#59280;" d="M240 608a112 112 0 1 0 0 224 112 112 0 0 0 0-224zM224 608h32v-128H224V608z m0-192h32v-128H224v128z m576 160h32v-128h-32v128z m0-192h32v-118.144h-32V384zM240 0a112 112 0 1 0 0 224 112 112 0 0 0 0-224z m576 608a112 112 0 1 0 0 224 112 112 0 0 0 0-224z m-576-320a176 176 0 1 0 0-352 176 176 0 0 0 0 352z m0-32a144 144 0 1 1 0-288 144 144 0 0 1 0 288z m576 32a112 112 0 1 0 0-224 112 112 0 0 0 0 224z m-179.008 69.44l91.84-89.12-22.272-22.976-91.84 89.152 22.272 22.944zM499.2 491.2l91.84-89.184-22.272-22.944-91.84 89.152 22.272 22.944z m-137.76 133.696l91.84-89.152-22.272-22.944-91.84 89.152 22.272 22.944zM223.648 758.624l91.84-89.152-22.272-22.944-91.84 89.12 22.272 22.976z"  horiz-adv-x="1024" />

    
    <glyph glyph-name="n-cloud" unicode="&#58987;" d="M694.4 704C752 704 800 656 800 598.4c0-48-32-86.4-73.6-99.2 41.6-12.8 73.6-51.2 73.6-99.2s-32-86.4-73.6-99.2c41.6-12.8 73.6-54.4 73.6-99.2 0-57.6-48-105.6-105.6-105.6-48 0-86.4 32-99.2 73.6C582.4 128 544 96 496 96s-86.4 32-99.2 73.6C384 128 342.4 96 297.6 96 240 96 192 144 192 201.6c0 48 32 86.4 73.6 99.2C224 313.6 192 352 192 400s32 86.4 73.6 99.2C224 512 192 553.6 192 598.4 192 656 240 704 297.6 704c48 0 86.4-32 99.2-73.6C409.6 672 448 704 496 704s86.4-32 99.2-73.6C608 672 649.6 704 694.4 704m0 32c-38.4 0-73.6-19.2-99.2-44.8-25.6 25.6-60.8 44.8-99.2 44.8s-73.6-19.2-99.2-44.8C371.2 716.8 336 736 297.6 736 220.8 736 160 675.2 160 598.4c0-38.4 19.2-73.6 44.8-99.2-25.6-25.6-44.8-60.8-44.8-99.2s19.2-73.6 44.8-99.2c-25.6-25.6-44.8-60.8-44.8-99.2C160 124.8 220.8 64 297.6 64c38.4 0 73.6 19.2 99.2 44.8 25.6-25.6 60.8-44.8 99.2-44.8s73.6 19.2 99.2 44.8c25.6-28.8 60.8-44.8 99.2-44.8 76.8 0 137.6 60.8 137.6 137.6 0 38.4-19.2 73.6-44.8 99.2 25.6 25.6 44.8 60.8 44.8 99.2s-19.2 73.6-44.8 99.2c28.8 25.6 44.8 60.8 44.8 99.2C832 675.2 771.2 736 694.4 736z"  horiz-adv-x="1024" />

    
    <glyph glyph-name="up" unicode="&#59278;" d="M600.275862 331.034483v-459.034483h-105.931034V331.034483H15.677793L564.965517 880.322207 1114.253241 331.034483H600.275862z"  horiz-adv-x="1129" />

    
    <glyph glyph-name="down" unicode="&#59279;" d="M600.275862 436.965517V896h-105.931034v-459.034483H15.677793L564.965517-112.322207 1114.253241 436.965517H600.275862z"  horiz-adv-x="1129" />

    
    <glyph glyph-name="transparent" unicode="&#59276;" d="M512 896L32 640v-512l480-256 480 256V640z m394.24-273.28L512 419.84 120.96 621.44 512 825.6zM96 177.92v384l384-197.76v-402.56l-384 198.4z m832-17.92l-384-198.4V364.16l384 197.76v-401.92z"  horiz-adv-x="1024" />

    
    <glyph glyph-name="untransparent" unicode="&#59277;" d="M968.56051 651.414013l-456.56051-238.063695-456.56051 238.063695L512 896zM22.828025 589.452229l456.56051-235.454777v-481.997452L22.828025 113.324841zM1001.171975 113.324841l-456.56051-241.324841V353.997452l456.56051 235.454777z"  horiz-adv-x="1024" />

    
    <glyph glyph-name="properties-" unicode="&#59275;" d="M320 576v-64H256V576h64z m448 0v-64H384V576h384zM320 384v-64H256V384h64z m448 0v-64H384V384h384z m-448-192v-64H256v64h64z m448 0v-64H384v64h384zM64 896v-960h896V896H64z m64-896V704h768v-704H128z"  horiz-adv-x="1024" />

    
    <glyph glyph-name="ncloud" unicode="&#58901;" d="M795.5 404c0.2 4.7 0.2 9 0.2 12.4 0 56.4-22 109.3-61.8 149.2-39.8 39.8-92.8 61.8-149.2 61.8-43.7 0-86.6-14.8-124.2-43-25.7-19.2-47.2-43.6-62.8-70.8-17 8.9-35.9 13.5-55.5 13.5-31.3 0-61.4-14.5-84.7-40.9-15.6-17.6-26.7-39-32-61.2-26.4-10.5-50-28.4-67-51.2-19.9-26.7-30.5-58.5-30.5-91.9 0-84.8 69-153.9 153.9-153.9l0 0.4L781 128.4l0-0.2c76.1 0 138 61.9 138 138C919.1 337 864.6 396.3 795.5 404L795.5 404zM786.6 160 786.6 160l-514.1 0.1C209.6 165 160 217.6 160 281.6c0 52.8 33.4 99.8 83.3 116.4 0.2 0.1 0.3 0.1 0.4 0.2 5 1.4 8.8 5.5 9.7 10.8 7.1 42.7 44.2 85.9 88.9 85.9 18.3 0 35.9-5.5 50.8-16 1.5-1.4 3.3-2.5 5.3-3.2l0 0c7.8-2.9 16.5 0.7 20 8.3 30.3 65.2 98 111.3 166.3 111.3 98.7 0 179-80.3 179-179 0-6.7-0.4-17.2-1-26.4-0.5-8.2 5.2-15.5 13.3-16.9l0 0c1.4-0.2 2.8-0.3 4.2-0.1l0-0.1c58.5 0 106.9-48.4 106.9-106.9C887.2 209.3 842.5 162.9 786.6 160L786.6 160z"  horiz-adv-x="1024" />

    
    <glyph glyph-name="axial-" unicode="&#59271;" d="M608 768h32v-736h-32V768z m128-128v-32H928v-416h-192v-32h224V640h-224zM96 640h32v-96H96V640z m0-192h32v-96H96v96z m0-192h32v-96H96v96z m320-64v-32h96v32h-96z m-192 0h96v-32H224v32zM224 640v-32h96V640H224z m192 0h96v-32h-96V640zM256 416h224v-32H256z"  horiz-adv-x="1024" />

    
    <glyph glyph-name="sectionbox1" unicode="&#59272;" d="M592 768L160 550.944V178.88l304-155.04L896 240.896V612.96L592 768z m269.664-172.544L464 395.936 194.368 533.44l397.664 200.096 269.632-138.08zM192 499.616l256-130.56v-302.016l-256 130.56v302.016z m672-240l-384-192.576v302.016l384 192.576v-302.016z"  horiz-adv-x="1024" />

    
    <glyph glyph-name="axial" unicode="&#59273;" d="M416 768h-32v-736h32V768zM288 640v-32H96v-416h192v-32H64V640h224z m640 0h-32v-96h32V640z m0-192h-32v-96h32v96z m0-192h-32v-96h32v96z m-320-64v-32h-96v32h96z m192 0h-96v-32h96v32z m0 448v-32h-96V640h96z m-192 0h-96v-32h96V640zM544 416h224v-32h-224zM672 512v-224h-32v224z"  horiz-adv-x="1024" />

    
    <glyph glyph-name="section-axial" unicode="&#59274;" d="M320 146.24V533.984l256 173.632v-387.744l-256-173.632z m-32-60.384l320 217.056V768L288 550.944v-465.088zM750.4 255.072l-15.52-26.848-277.12 160 15.488 26.88 277.12-160z m46.368 83.072l81.536-177.28-188.8-15.424 107.264 192.704z"  horiz-adv-x="1024" />

    
    <glyph glyph-name="min-" unicode="&#59269;" d="M64 320v-64h275.2L12.8-70.4l44.8-44.8L384 211.2V-64h64V320H64z m838.4 499.2L576 492.8V768H512v-384h384V448H620.8l326.4 326.4-44.8 44.8z"  horiz-adv-x="1024" />

    
    <glyph glyph-name="max-" unicode="&#59270;" d="M576 832v-64h275.2L524.8 441.6l44.8-44.8L896 723.2V448h64V832H576zM454.4 371.2L128 44.8V320H64v-384h384v64H172.8l326.4 326.4-44.8 44.8z"  horiz-adv-x="1024" />

    
    <glyph glyph-name="show" unicode="&#59266;" d="M85.333333 390.058667S230.101333 640 512 640c286.378667 0 426.666667-251.050667 426.666667-251.050667s-139.221333-248.362667-426.666667-251.52c-292.309333-3.2-426.666667 252.586667-426.666667 252.586667zM512 213.333333a170.666667 170.666667 0 1 1 0 341.333334 170.666667 170.666667 0 0 1 0-341.333334z m0 42.666667a128 128 0 1 0 0 256 128 128 0 0 0 0-256z"  horiz-adv-x="1024" />

    
    <glyph glyph-name="hide" unicode="&#59267;" d="M235.733333 682.666667l592.213334-592.213334-29.568-29.610666L206.165333 652.970667 235.690667 682.666667z m688.128-283.093334c-5.632 9.386667-141.482667 229.674667-412.757333 229.674667-52.096 0-99.114667-8.234667-141.226667-21.333333l34.261334-34.261334a428.8 428.8 0 0 0 106.965333 13.866667c250.752 0 376.917333-209.408 376.917333-209.408s-48.426667-81.152-145.792-142.378667l30.336-30.378666c98.048 64.426667 148.181333 145.792 151.466667 151.296l12.8 21.589333-12.970667 21.333333z m-306.090666-217.258666a425.984 425.984 0 0 0-106.666667-13.738667c-250.026667 0-376.96 209.408-376.96 209.408s48.682667 80.896 145.792 142.122667l-30.336 30.378666c-97.792-64.256-148.053333-145.28-151.296-150.912L85.333333 377.984l13.098667-21.589333c5.632-9.429333 142.122667-229.717333 412.672-229.717334 52.053333 0 99.072 8.106667 141.056 21.205334l-34.389333 34.432z m-138.88 316.586666c10.325333 2.773333 21.077333 4.693333 32.213333 4.693334a125.866667 125.866667 0 0 0 125.610667-125.610667c0-11.264-1.962667-21.845333-4.693334-32.213333l33.237334-33.237334a167.509333 167.509333 0 0 1-219.733334 219.605334l33.365334-33.237334z m64.128-241.834666c-10.325333-2.773333-20.906667-4.693333-31.914667-4.693334a125.866667 125.866667 0 0 0-125.653333 125.610667c0 11.093333 1.962667 21.76 4.693333 31.914667l-33.237333 33.28a167.509333 167.509333 0 0 1 219.605333-219.605334l-33.493333 33.493334z"  horiz-adv-x="1024" />

    
    <glyph glyph-name="layers" unicode="&#59268;" d="M512 384L118.4 544 512 704l393.6-160L512 384z m-310.4 160l310.4-128 310.4 128L512 672l-310.4-128zM707.2 432l115.2-48-310.4-128-310.4 128 115.2 48-41.6 16-156.8-64L512 224l393.6 160-156.8 64zM707.2 272l115.2-48-310.4-128-310.4 128 115.2 48-41.6 16-156.8-64L512 64l393.6 160-156.8 64z"  horiz-adv-x="1024" />

    
    <glyph glyph-name="distance" unicode="&#59264;" d="M800 416v-256H192v256h608z m-32-32H224v-192h544v192zM672 287.96799999999996h32v96h-32zM576 287.96799999999996h32v96h-32zM384 287.96799999999996h32v96h-32zM480 256h32v128h-32zM288 287.96799999999996h32v96H288zM192 544h608v32H192zM768 511.968h32V608h-32v-96.032z m-576 0h32V608H192v-96.032z"  horiz-adv-x="1024" />

    
    <glyph glyph-name="angle" unicode="&#59265;" d="M192 192v-64h640v64H192z m-32 32h704v-128H160v128zM216.736 223.39200000000005l-18.336 25.088L692.064 639.392l18.336-25.088zM288 456.928c136.512-23.456 203.616-111.136 192.416-264.928h-32.8c10.112 138.08-40.128 212.544-159.616 233.024v31.904z"  horiz-adv-x="1024" />

    
    <glyph glyph-name="view" unicode="&#59263;" d="M528 736L224 576v-384l304-160 304 160V576l-0.032-0.032M528.032 700.416L797.664 557.92 528 416 258.368 557.92l269.664 142.496zM256 523.008l256-134.752v-311.68L256 211.328v311.68z m544-311.68L544 76.576v311.68l256 134.752v-311.68z"  horiz-adv-x="1024" />

    
    <glyph glyph-name="orbit" unicode="&#59260;" d="M774.816 190.464C717.76 111.296 625.472 64 528 64c-167.616 0-304 136.384-304 304h64l-80 128-80-128h64c0-185.28 150.72-336 336-336 107.712 0 209.696 52.256 272.736 139.776l-25.92 18.688zM864 368c0 185.28-150.72 336-336 336-108.928 0-211.584-53.184-274.56-142.24l26.112-18.464C336.576 623.872 429.44 672 528 672c167.616 0 304-136.384 304-304h-64l80-128 80 128h-64zM688 480l-160 64v-0.224l-159.712-63.872L368 480v-224l160-64 160 64V480zM512 232.864l-112 44.8V432.736l112-44.8v-155.072zM411.328 462.656L528 509.504v-0.032l116.896-46.688L528 416l-116.672 46.656zM656 277.664l-112-44.8V387.936l112 44.8v-155.072z"  horiz-adv-x="1024" />

    
    <glyph glyph-name="pan" unicode="&#59261;" d="M528 400H768V480l128-96-128-96v80h-240V128H608l-96-96-96 96h80v240H256V288l-128 96 128 96v-80h240V640H416l96 128 96-128h-80v-240z"  horiz-adv-x="1024" />

    
    <glyph glyph-name="zoom" unicode="&#59262;" d="M512 693.184L308.16 512h168.096L512 225.984 547.744 512h168.096L512 693.184zM594.752 192h-165.504L512 109.248 594.752 192z m-147.008 32l0.512-3.968 3.52 3.968H480l-3.52 28.032L480 256h-4L448 480H224l288 256 288-256h-224l-28-224H544l3.52-3.968L544 224h28.256l3.52-3.968 0.48 3.968H672l-160-160-160 160h95.744z"  horiz-adv-x="1024" />

    
    <glyph glyph-name="add" unicode="&#59258;" d="M448 448H128v-128h320v-320h128V320h320V448H576V768H448v-320z"  horiz-adv-x="1024" />

    
    <glyph glyph-name="minus" unicode="&#59259;" d="M128 448h768v-128H128z"  horiz-adv-x="1024" />

    
    <glyph glyph-name="firstperson" unicode="&#59257;" d="M528 672a80 80 0 1 1 0 160 80 80 0 0 1 0-160z m0-32a112 112 0 1 0 0 224 112 112 0 1 0 0-224zM612.096 640h-170.624c-64.48 0-89.088-51.392-95.744-113.632L320 319.168c0-18.016 11.872-31.68 32.512-31.68s29.728 13.024 31.712 31.872l32.576 194.496 0.16-531.104c0-27.072 19.328-46.752 47.04-46.752 27.68 0 48.032 18.592 48.448 48.096L512 256h32l0.448-271.808c0-27.072 15.68-48.192 47.552-48.192 27.712 0 48.288 21.28 48.288 48.352l1.632 529.504 30.688-194.08c2.624-19.264 11.008-32.192 31.648-32.192s30.208 11.776 31.968 32.448l-23.424 211.136C707.392 593.088 676.544 640 612.096 640z m60.192-655.648A79.424 79.424 0 0 0 592-96c-28.096 0-50.336 11.456-64.096 30.08-14.4-18.752-37.184-30.08-63.904-30.08-45.216 0-79.04 33.856-79.04 78.72l-0.096 280.64a65.28 65.28 0 0 0-32.352-7.872c-37.728 0-64.512 27.36-64.512 63.68l0.256 3.936 25.664 206.656C323.2 616.64 363.52 672 441.472 672h170.624c78.656 0 125.344-55.264 132.48-137.28l23.456-211.168 0.064-6.24c-3.168-37.184-26.24-61.728-63.84-61.728-12.032 0-22.4 2.56-31.104 7.168l-0.864-278.4z"  horiz-adv-x="1024" />

    
    <glyph glyph-name="measure" unicode="&#59256;" d="M160 224h736v256H160v-256z m-32 288h800v-320H128V512z m0 32h800v-32H128v32zM224 480h32v-96H224v96z m96 0h32v-96h-32v96z m96 0h32v-96h-32v96z m192 0h32v-96h-32v96z m-96 0h32v-160h-32v160z m192 0h32v-96h-32v96z m96 0h32v-96h-32v96z"  horiz-adv-x="1024" />

    
    <glyph glyph-name="notes" unicode="&#58914;" d="M192 127.328l640 0 0-64-640 0 0 64ZM931.904 120.8M1191.008 379.904M1214.56 403.456M166.4 456.288 165.76 457.408 167.04 457.408ZM359.712 213.216l-134.88-22.464 22.464 134.848L359.712 213.216zM359.712 213.216M725.44 578.944l39.328 39.328-112.384 112.384-39.328-39.328L725.44 578.944zM725.44 578.944M702.656 556.16 590.272 668.512 269.792 348.064 382.176 235.712 495.456 348.96 495.456 348.96Z"  horiz-adv-x="1024" />

    
    <glyph glyph-name="narrow" unicode="&#58922;" d="M352 416l192-192-288-96L352 416zM292 141.1l-22 23.3L768 640l23.5-24L292 141.1z"  horiz-adv-x="1024" />

    
    <glyph glyph-name="noval" unicode="&#58916;" d="M512 704c158.8 0 288-129.2 288-288S670.8 128 512 128 224 257.2 224 416 353.2 704 512 704M512 736c-176.7 0-320-143.3-320-320s143.3-320 320-320 320 143.3 320 320S688.7 736 512 736L512 736z"  horiz-adv-x="1024" />

    
    <glyph glyph-name="nrectangle" unicode="&#58917;" d="M800.2 639.9l0-447.7-576.3 0L223.9 639.9 800.2 639.9M832.2 671.9 191.8 671.9l0-511.7 640.3 0L832.2 671.9 832.2 671.9z"  horiz-adv-x="1024" />

    
    <glyph glyph-name="ntext" unicode="&#58918;" d="M784 672l0-150.4-14.6 0c-8.7 34.4-18.3 58.5-28.8 73.6s-25.1 27-43.5 36c-10.3 4.9-28.3 7.3-54 7.3l-41 0 0-425c0-28.2 1.6-45.8 4.7-52.8s9.2-13.2 18.2-18.5c9.1-5.3 21.5-7.9 37.2-7.9l18.3 0 0-15L392.1 119.3l0 15 18.3 0c16 0 28.8 2.8 38.6 8.5 7 3.8 12.6 10.3 16.7 19.5 3 6.5 4.5 23.6 4.5 51.2l0 424.9-39.8 0c-37.1 0-64.1-7.9-80.8-23.6-23.6-22-38.5-52.6-44.7-93.3L288 521.5 288 672 784 672z"  horiz-adv-x="1024" />

    
    <glyph glyph-name="mark" unicode="&#58919;" d="M192.2 95.8l608 608.2 22.6-22.6-608-608.2c-0 0-22.6 22.6-22.6 22.6zM809.6 73.2l-608 608.2 22.6 22.6 608-608.2c0-0-22.6-22.6-22.6-22.6z"  horiz-adv-x="1024" />

    
    <glyph glyph-name="zoomrect" unicode="&#59211;" d="M886.4 86.4l-96 96c25.6 28.8 41.6 64 41.6 105.6 0 9.6 0 19.2-3.2 28.8v6.4c-3.2 9.6-3.2 16-6.4 22.4 0 3.2-3.2 6.4-3.2 9.6-3.2 6.4-6.4 9.6-9.6 16-3.2 6.4-6.4 9.6-9.6 16l-6.4 6.4c-6.4 9.6-16 16-22.4 22.4v288h-512v-512h288c6.4-9.6 12.8-16 22.4-22.4l6.4-6.4c6.4-3.2 9.6-6.4 16-9.6 6.4-3.2 9.6-6.4 16-9.6 3.2 0 6.4-3.2 9.6-3.2 6.4-3.2 16-6.4 22.4-6.4h6.4c9.6-3.2 19.2-3.2 28.8-3.2 35.2 0 67.2 12.8 96 32l96-96 19.2 19.2zM288 224v448h448v-236.8c-19.2 9.6-41.6 12.8-64 12.8-89.6 0-160-70.4-160-160 0-22.4 6.4-44.8 12.8-64h-236.8z m384-64c-9.6 0-19.2 0-28.8 3.2-3.2 0-3.2 0-6.4 3.2-6.4 3.2-12.8 3.2-19.2 6.4-3.2 0-3.2 3.2-6.4 3.2-6.4 3.2-12.8 6.4-19.2 12.8 0 0-3.2 0-3.2 3.2l-19.2 19.2-6.4 6.4c-12.8 19.2-19.2 44.8-19.2 70.4 0 70.4 57.6 128 128 128 25.6 0 48-6.4 70.4-19.2l6.4-6.4c6.4-6.4 16-12.8 19.2-19.2 0 0 0-3.2 3.2-3.2 6.4-6.4 9.6-12.8 12.8-19.2 0-3.2 3.2-3.2 3.2-6.4 3.2-6.4 6.4-12.8 6.4-19.2 0-3.2 0-3.2 3.2-6.4 3.2-9.6 3.2-19.2 3.2-28.8 0-70.4-57.6-128-128-128z"  horiz-adv-x="1024" />

    
    <glyph glyph-name="selected" unicode="&#59200;" d="M930.133 580.267l-102.4 102.4-418.133-418.133-213.333 213.333-110.933-110.933 315.733-315.733 110.933 102.4 418.133 426.667z"  horiz-adv-x="1024" />

    
    <glyph glyph-name="tree" unicode="&#59202;" d="M800 224v192h-288V608h96V768h-224v-160h96v-192H192v-192H128v-160h160v160H224v160h256v-160h-64v-160h160v160h-64v160h256v-160h-64v-160h160v160z"  horiz-adv-x="1024" />

    
    <glyph glyph-name="infor" unicode="&#59201;" d="M512 810.667c238.933 0 426.667-187.733 426.667-426.667s-187.733-426.667-426.667-426.667-426.667 187.733-426.667 426.667 187.733 426.667 426.667 426.667M512 896c-281.6-0-512-230.4-512-512s230.4-512 512-512 512 230.4 512 512-230.4 512-512 512zM469.333 640h85.333v-85.333h-85.333zM469.333 469.333h85.333v-341.333h-85.333z"  horiz-adv-x="1024" />

    
    <glyph glyph-name="box-hide" unicode="&#59197;" d="M528 768L96 544v-352l304-160 131.2 67.2c-9.6 9.6-22.4 12.8-32 19.2L416 76.79999999999995v278.4l384 198.4v-188.8c9.6-3.2 22.4-6.4 32-9.6V608l-304 160zM128 211.20000000000005v278.4l256-134.4v-278.4l-256 134.4z m272 172.8l-268.8 140.8 396.8 208 268.8-144L400 384zM682.72 313.15200000000004l-25.664 25.664A241.408 241.408 0 0 0 736 352c94.272 0 179.584-53.344 256-160-28.8-40.224-58.88-72.832-90.24-97.92l-22.72 22.784c24.96 19.52 49.312 44.512 73.056 75.136-66.912 86.304-138.688 128-216.096 128-18.048 0-35.84-2.24-53.28-6.848z m-89.728-46.016c-24.992-19.52-49.344-44.512-73.088-75.136 66.912-86.304 138.688-128 216.096-128 18.048 0 35.84 2.24 53.28 6.848l25.664-25.664c-25.6-8.8-51.904-13.184-78.944-13.184-94.272 0-179.584 53.344-256 160 28.8 40.224 58.88 72.832 90.24 97.92l22.72-22.784h0.032zM799.872 196a64 64 0 0 1-59.84 59.872l-28.896 28.864a96.128 96.128 0 0 0 117.6-117.6l-28.864 28.864z m-127.744-8a64 64 0 0 1 59.84-59.872l28.896-28.864a96.128 96.128 0 0 0-117.6 117.6l28.864-28.864zM576 374.624L915.424 35.200000000000045l-22.656-22.624L553.376 352z"  horiz-adv-x="1024" />

    
    <glyph glyph-name="information" unicode="&#59198;" d="M512 736c195.2 0 352-156.8 352-352s-156.8-352-352-352S160 188.8 160 384 316.8 736 512 736m0 32C300.8 768 128 595.2 128 384s172.8-384 384-384 384 172.8 384 384S723.2 768 512 768zM480 576h64v-64h-64zM480 448h64v-256h-64z"  horiz-adv-x="1024" />

    
    <glyph glyph-name="properties" unicode="&#58889;" d="M1191.008 379.904M1214.56 403.456M288 480l64 0 0-64-64 0 0 64ZM416 480l352 0 0-64-352 0 0 64ZM288 352l64 0 0-64-64 0 0 64ZM416 352l352 0 0-64-352 0 0 64ZM288 224l64 0 0-64-64 0 0 64ZM416 224l352 0 0-64-352 0 0 64ZM852 736 192 736l0-160 0-544 672 0L864 736 852 736zM384 688l64 0 0-64-64 0L384 688zM288 688l64 0 0-64L288 624 288 688zM832 64 224 64 224 576l608 0L832 64z"  horiz-adv-x="1024" />

    
    <glyph glyph-name="map" unicode="&#59192;" d="M656 800C524.8 800 416 694.4 416 560S656 160 656 160 896 428.8 896 560 790.4 800 656 800z m0-339.2c-67.2 0-121.6 54.4-121.6 121.6 0 67.2 54.4 121.6 121.6 121.6s121.6-54.4 121.6-121.6c0-67.2-54.4-121.6-121.6-121.6zM128 192h480v-32H128zM128 480h288v-32h-288zM320 640h32v-672h-32zM640 128h32v-160h-32zM704 192h160v-32h-160z"  horiz-adv-x="1024" />

    
    <glyph glyph-name="maximize" unicode="&#59193;" d="M608 704v-32h169.6l-227.2-227.2 22.4-22.4L800 649.6V480h32V704zM451.2 345.6L224 118.4V288H192v-224h224v32H246.4l227.2 227.2zM896 768v-768H128V768h768m32 32H96v-832h832V800z"  horiz-adv-x="1024" />

    
    <glyph glyph-name="minimize" unicode="&#59194;" d="M256 352v-32h169.6l-227.2-227.2 22.4-22.4 227.2 227.2V128h32v224zM803.2 697.6L576 470.4V640h-32v-224h224v32h-169.6l227.2 227.2zM896 768v-768H128V768h768m32 32H96v-832h832V800z"  horiz-adv-x="1024" />

    
    <glyph glyph-name="reset-box" unicode="&#59195;" d="M210.56 224l112 160h-224zM530.016 32v32a304 304 0 1 1-304 304h-32c0 185.568 150.4 336 336 336 185.568 0 336-150.432 336-336S715.552 32 530.016 32z"  horiz-adv-x="1024" />

    
    <glyph glyph-name="rotate-box" unicode="&#59196;" d="M528 64c-166.4 0-304 137.6-304 304h64l-80 128-80-128h64C192 182.4 342.4 32 528 32c108.8 0 211.2 51.2 272 140.8l-25.6 19.2c-57.6-80-150.4-128-246.4-128zM864 368C864 553.6 713.6 704 528 704c-108.8 0-211.2-54.4-275.2-140.8l25.6-19.2c57.6 80 150.4 128 249.6 128C694.4 672 832 534.4 832 368h-64l80-128 80 128h-64zM640 480v-224h-224V480h224m32 32h-288v-288h288V512z"  horiz-adv-x="1024" />

    
    <glyph glyph-name="close16" unicode="&#58883;" d="M929.7 22.1 567.8 384.2l361.4 361.6c11.9 11.9 11.9 31.2 0 43.2l-12.7 12.7c-11.9 11.9-31.2 11.9-43.1 0L512 440.1 150.6 801.7c-11.9 11.9-31.2 11.9-43.1 0L94.8 789c-11.9-11.9-11.9-31.2 0-43.2l361.4-361.6L94.2 22.1c-11.9-11.9-11.9-31.3 0-43.2l12.7-12.7c11.9-11.9 31.2-11.9 43.1 0L512 328.4l361.9-362.1c11.9-11.9 31.2-11.9 43.1 0l12.7 12.7C941.6-9.1 941.6 10.2 929.7 22.1z"  horiz-adv-x="1024" />

    
    <glyph glyph-name="orbitcamera" unicode="&#58887;" d="M512 864M528 64C360.384 64 224 200.384 224 368l64 0-80 128-80-128 64 0C192 182.72 342.72 32 528 32c107.712 0 209.696 52.256 272.736 139.776l-25.952 18.688C717.76 111.296 625.472 64 528 64zM864 368C864 553.28 713.28 704 528 704c-108.928 0-211.584-53.184-274.56-142.24l26.112-18.464C336.576 623.872 429.44 672 528 672c167.616 0 304-136.384 304-304l-64 0 80-128 80 128L864 368zM704 480l-96-48L608 480l-256 0 0-224 256 0 0 48 96-48L704 480zM576 288l-192 0 0 160 192 0 0-32 0-96L576 288zM672 307.776l-64 32 0 56.448 64 32L672 307.776z"  horiz-adv-x="1024" />

    
    <glyph glyph-name="orbitpoint" unicode="&#58888;" d="M512 864M528 64C360.384 64 224 200.384 224 368l64 0-80 128-80-128 64 0C192 182.72 342.72 32 528 32c107.712 0 209.696 52.256 272.736 139.776l-25.952 18.688C717.76 111.296 625.472 64 528 64zM864 368C864 553.28 713.28 704 528 704c-108.928 0-211.584-53.184-274.56-142.24l26.112-18.464C336.576 623.872 429.44 672 528 672c167.616 0 304-136.384 304-304l-64 0 80-128 80 128L864 368zM528 368m-112 0a3.5 3.5 0 1 0 224 0 3.5 3.5 0 1 0-224 0Z"  horiz-adv-x="1024" />

    
    <glyph glyph-name="settings" unicode="&#58891;" d="M796.896 460.448c-6.72 25.12-16.672 48.96-29.408 70.976l55.872 84.32-0.096 0.096-79.456 79.456L743.712 695.36l-84.32-55.872c-22.016 12.736-45.824 22.688-70.976 29.408L568.32 768l-0.128 0-112.384 0L455.68 768l-20.128-99.104c-25.12-6.72-48.96-16.672-70.976-29.408L280.288 695.36 280.192 695.264 200.736 615.808 200.64 615.712l55.872-84.32c-12.736-22.016-22.688-45.824-29.408-70.976L128 440.32l0-0.128 0-112.384 0-0.128 99.104-20.128c6.72-25.12 16.672-48.96 29.408-70.976L200.64 152.288l0.096-0.096 79.456-79.456 0.096-0.096 84.32 55.872c22.016-12.736 45.824-22.688 70.976-29.408L455.68 0l0.128 0 112.384 0 0.128 0 20.096 99.104c25.12 6.72 48.96 16.672 70.976 29.408l84.32-55.872 0.096 0.096 79.456 79.456 0.096 0.096-55.872 84.32c12.736 22.016 22.688 45.824 29.408 70.976L896 327.68l0 0.128 0 112.384L896 440.32 796.896 460.448zM512 224c-88.352 0-160 71.648-160 160s71.648 160 160 160 160-71.648 160-160S600.352 224 512 224z"  horiz-adv-x="1024" />

    
    <glyph glyph-name="home" unicode="&#59136;" d="M928 384L512 768 96 384h128v-352h192V288h192v-256h192V384z"  horiz-adv-x="1024" />

    
    <glyph glyph-name="sectionbox" unicode="&#59199;" d="M576 736h32v-704h-32v704zM672 640v-32h192v-384h-192v-32h224v448zM128 384h32v-96h-32v96zM128 192h32c16 0 32 0 32 0v32h-64v-32zM416 608h96v32h-96zM128 544h32v-96h-32v96zM128 640h64v-32h-64v32zM256 640h96v-32h-96v32zM416 224v-32h96v32h-60zM256 224h96v-32h-96v32z"  horiz-adv-x="1024" />

    


  </font>
</defs>
</svg>
