<?xml version="1.0" standalone="no"?>
<!DOCTYPE svg PUBLIC "-//W3C//DTD SVG 1.1//EN" "http://www.w3.org/Graphics/SVG/1.1/DTD/svg11.dtd" >
<!--
2013-9-30: Created.
-->
<svg>
<metadata>
Created by iconfont
</metadata>
<defs>

<font id="iconfont" horiz-adv-x="1024" >
  <font-face
    font-family="iconfont"
    font-weight="500"
    font-stretch="normal"
    units-per-em="1024"
    ascent="896"
    descent="-128"
  />
    <missing-glyph />
    
    <glyph glyph-name="x" unicode="x" horiz-adv-x="1001"
d="M281 543q-27 -1 -53 -1h-83q-18 0 -36.5 -6t-32.5 -18.5t-23 -32t-9 -45.5v-76h912v41q0 16 -0.5 30t-0.5 18q0 13 -5 29t-17 29.5t-31.5 22.5t-49.5 9h-133v-97h-438v97zM955 310v-52q0 -23 0.5 -52t0.5 -58t-10.5 -47.5t-26 -30t-33 -16t-31.5 -4.5q-14 -1 -29.5 -0.5
t-29.5 0.5h-32l-45 128h-439l-44 -128h-29h-34q-20 0 -45 1q-25 0 -41 9.5t-25.5 23t-13.5 29.5t-4 30v167h911zM163 247q-12 0 -21 -8.5t-9 -21.5t9 -21.5t21 -8.5q13 0 22 8.5t9 21.5t-9 21.5t-22 8.5zM316 123q-8 -26 -14 -48q-5 -19 -10.5 -37t-7.5 -25t-3 -15t1 -14.5
t9.5 -10.5t21.5 -4h37h67h81h80h64h36q23 0 34 12t2 38q-5 13 -9.5 30.5t-9.5 34.5q-5 19 -11 39h-368zM336 498v228q0 11 2.5 23t10 21.5t20.5 15.5t34 6h188q31 0 51.5 -14.5t20.5 -52.5v-227h-327z" />
    

    
    <glyph glyph-name="delete" unicode="&#58882;" d="M512-212C229.229714-212 0 17.229714 0 300 0 582.770286 229.229714 812 512 812 794.770286 812 1024 582.770286 1024 300 1024 17.229714 794.770286-212 512-212ZM768.146286 506.848 716.434286 558.633143 509.586286 351.712 302.665143 558.633143 250.953143 506.848 457.874286 300 250.953143 93.078857 302.665143 41.366857 509.586286 248.288 716.434286 41.366857 768.146286 93.078857 561.298286 300 768.146286 506.848Z"  horiz-adv-x="1024" />

    
    <glyph glyph-name="list" unicode="&#58935;" d="M0 896l256 0 0-256-256 0zM384 832l640 0 0-128-640 0zM0 512l256 0 0-256-256 0zM384 448l640 0 0-128-640 0zM0 128l256 0 0-256-256 0zM384 64l640 0 0-128-640 0z"  horiz-adv-x="1024" />

    
    <glyph glyph-name="point" unicode="&#59043;" d="M512 300m-68.266667 0a4 4 0 1 0 136.533333 0 4 4 0 1 0-136.533333 0Z"  horiz-adv-x="1024" />

    
    <glyph glyph-name="iconpoint" unicode="&#59062;" d="M512 384m-34.133333 0a2 2 0 1 0 68.266667 0 2 2 0 1 0-68.266667 0Z"  horiz-adv-x="1024" />

    
    <glyph glyph-name="tianjia" unicode="&#58909;" d="M62.811501 432.379121l894.919081 0 0-95.727724-894.919081 0 0 95.727724ZM462.408203 831.9748l95.727724 0 0-894.919081-95.727724 0 0 894.919081Z"  horiz-adv-x="1025" />

    
    <glyph glyph-name="jiantouarrow479" unicode="&#59025;" d="M818.30912 77.70112c-3.3792-3.3792-8.13056-4.98688-12.86144-4.37248l-470.92736 61.55264c-3.45088 0.45056-6.54336 2.02752-8.87808 4.37248-2.304 2.304-3.87072 5.3248-4.352 8.73472-0.96256 6.83008 2.77504 13.47584 9.10336 16.2304l189.07136 81.99168-313.76384 313.7536c-6.00064 6.00064-6.00064 15.72864 0 21.72928l108.60544 108.60544c6.01088 6.00064 15.7184 6.00064 21.72928 0l313.7536-313.76384 82.00192 189.0816c2.75456 6.32832 9.39008 10.05568 16.2304 9.09312 6.84032-0.95232 12.21632-6.3488 13.09696-13.21984l61.55264-470.92736C823.28576 85.83168 821.66784 81.07008 818.30912 77.70112z"  horiz-adv-x="1024" />

    
    <glyph glyph-name="jiantouarrow478" unicode="&#59042;" d="M818.29888 186.32704 709.70368 77.71136c-6.02112-6.00064-15.7184-6.00064-21.73952 0L374.2208 391.46496l-82.01216-189.07136c-2.75456-6.32832-9.39008-10.06592-16.2304-9.09312-6.84032 0.95232-12.21632 6.3488-13.09696 13.23008l-61.55264 470.91712c-0.62464 4.72064 0.99328 9.48224 4.36224 12.8512 3.3792 3.3792 8.13056 4.98688 12.86144 4.37248l470.92736-61.55264c3.45088-0.45056 6.54336-2.02752 8.87808-4.37248 2.304-2.304 3.87072-5.3248 4.352-8.73472 0.96256-6.83008-2.77504-13.47584-9.10336-16.22016l-189.07136-81.99168 313.76384-313.7536C824.29952 202.0352 824.29952 192.32768 818.29888 186.32704z"  horiz-adv-x="1024" />

    
    <glyph glyph-name="jiantouarrow499" unicode="&#59045;" d="M512 778.77248c4.77184 0 9.2672-2.21184 12.17536-6.00064l289.4848-376.5248c2.12992-2.75456 3.18464-6.06208 3.18464-9.35936 0-3.25632-1.03424-6.5024-3.09248-9.24672-4.15744-5.51936-11.48928-7.5776-17.90976-5.03808L604.16 448.31744l0-443.72992c0-8.48896-6.87104-15.36-15.36-15.36l-153.6 0c-8.48896 0-15.36 6.87104-15.36 15.36L419.84 448.31744l-191.67232-75.71456c-6.42048-2.53952-13.75232-0.47104-17.90976 5.03808-4.15744 5.50912-4.13696 13.12768 0.09216 18.60608l289.47456 376.5248C502.7328 776.5504 507.22816 778.77248 512 778.77248z"  horiz-adv-x="1024" />

    
    <glyph glyph-name="jiantouarrow501" unicode="&#59047;" d="M818.29888 559.96416 504.53504 246.21056l189.0816-82.00192c6.31808-2.75456 10.05568-9.39008 9.08288-16.2304-0.94208-6.84032-6.33856-12.21632-13.21984-13.09696l-470.91712-61.55264c-4.72064-0.62464-9.48224 1.00352-12.86144 4.36224-3.3792 3.3792-4.97664 8.13056-4.36224 12.86144l61.5424 470.92736c0.4608 3.45088 2.03776 6.54336 4.38272 8.87808 2.304 2.304 5.3248 3.87072 8.72448 4.352 6.84032 0.96256 13.47584-2.77504 16.24064-9.10336l81.98144-189.07136 313.76384 313.76384c6.00064 5.9904 15.7184 5.9904 21.71904 0l108.61568-108.60544C824.29952 575.68256 824.29952 565.97504 818.29888 559.96416z"  horiz-adv-x="1024" />

    
    <glyph glyph-name="jiantouarrow484" unicode="&#59048;" d="M906.77248 384c0-4.77184-2.21184-9.2672-5.9904-12.17536l-376.5248-289.4848c-2.7648-2.11968-6.06208-3.18464-9.3696-3.18464-3.25632 0-6.5024 1.03424-9.24672 3.09248-5.50912 4.15744-7.5776 11.48928-5.03808 17.90976l75.71456 191.67232L132.58752 291.82976c-8.48896 0-15.36 6.88128-15.36 15.36l0 153.6c0 8.48896 6.87104 15.36 15.36 15.36l443.72992 0-75.71456 191.68256c-2.53952 6.42048-0.47104 13.75232 5.04832 17.90976 5.50912 4.15744 13.12768 4.13696 18.60608-0.09216l376.5248-289.4848C904.56064 393.2672 906.77248 388.77184 906.77248 384z"  horiz-adv-x="1024" />

    
    <glyph glyph-name="jiantouarrow506" unicode="&#59061;" d="M906.78272 307.21024c-0.02048-8.4992-6.88128-15.36-15.38048-15.37024l-443.6992 0.01024 75.70432-191.68256c2.51904-6.42048 0.48128-13.76256-5.03808-17.90976-5.51936-4.16768-13.13792-4.1472-18.61632 0.09216l-376.5248 289.47456c-3.77856 2.89792-6.00064 7.41376-6.00064 12.16512 0 4.78208 2.22208 9.27744 6.00064 12.1856l376.5248 289.47456c2.7648 2.11968 6.06208 3.19488 9.37984 3.19488 3.23584 0 6.5024-1.03424 9.23648-3.10272 5.51936-4.1472 7.5776-11.48928 5.03808-17.90976L447.68256 476.16l443.71968 0.01024c8.4992-0.01024 15.36-6.88128 15.36-15.36L906.78272 307.21024z"  horiz-adv-x="1024" />

    
    <glyph glyph-name="jiantouarrow504" unicode="&#59076;" d="M822.66112 677.44768l-61.55264-470.9376c-0.45056-3.45088-2.03776-6.53312-4.37248-8.86784-2.304-2.304-5.3248-3.87072-8.72448-4.352-6.83008-0.96256-13.47584 2.7648-16.22016 9.10336l-81.99168 189.07136L336.03584 77.70112c-6.00064-6.00064-15.72864-6.00064-21.72928 0L205.70112 186.3168c-6.00064 6.00064-6.00064 15.7184 0 21.71904l313.76384 313.76384-189.07136 81.99168c-6.33856 2.75456-10.06592 9.39008-9.10336 16.2304 0.95232 6.84032 6.3488 12.20608 13.21984 13.09696l470.92736 61.55264c4.73088 0.62464 9.48224-0.99328 12.8512-4.36224C821.66784 686.92992 823.28576 682.17856 822.66112 677.44768z"  horiz-adv-x="1024" />

    
    <glyph glyph-name="jiantouarrow505" unicode="&#59077;" d="M813.63968 371.75296l-289.46432-376.5248c-2.89792-3.77856-7.424-6.00064-12.17536-6.00064-4.78208 0-9.27744 2.22208-12.17536 6.00064l-289.4848 376.5248c-2.11968 2.7648-3.18464 6.06208-3.18464 9.3696 0 3.24608 1.024 6.5024 3.10272 9.24672 4.13696 5.50912 11.47904 7.56736 17.89952 5.03808L419.84 319.6928l-0.02048 443.71968c0.02048 8.48896 6.88128 15.36 15.38048 15.36l153.57952 0c8.4992 0 15.36-6.87104 15.38048-15.36L604.13952 319.6928l191.68256 75.7248c6.42048 2.52928 13.76256 0.47104 17.92-5.04832C817.89952 384.84992 817.87904 377.23136 813.63968 371.75296z"  horiz-adv-x="1024" />

    
    <glyph glyph-name="guaduandianhua" unicode="&#58885;" d="M841.216 39.936c185.856 185.856 185.856 487.424 0 673.792C655.36 899.584 353.792 899.584 167.424 713.728c-185.856-185.856-185.856-487.424 0-673.792 186.368-185.856 487.936-185.856 673.792 0zM218.624 400.896c0 47.616 111.104 113.664 285.696 113.664 175.104 0 285.696-66.048 285.696-113.664 0-40.96 10.752-102.4-73.728-93.184-84.48 9.216-78.848 40.96-78.848 83.456 0 29.696-68.608 36.352-133.12 36.352-65.024 0-133.12-6.656-133.12-36.352 0-42.496 5.632-74.24-78.848-83.456-84.992-9.216-73.728 51.712-73.728 93.184z"  horiz-adv-x="1024" />

    
    <glyph glyph-name="Card" unicode="&#58883;" d="M0 469.333333h426.666667V896H0v-426.666667z m597.333333 426.666667v-426.666667h426.666667V896H597.333333z m0-1024h426.666667V298.666667H597.333333v-426.666667z m-597.333333 0h426.666667V298.666667H0v-426.666667z"  horiz-adv-x="1024" />

    
    <glyph glyph-name="revoke" unicode="&#58888;" d="M102.635199 582.331872a17.667251 17.667251 0 0 1-5.165319-12.588904 17.874184 17.874184 0 0 1 5.228299-12.527924l311.464655-309.560275c1.618473-1.624471 4.109663-2.188288 6.410914-1.249593 2.24227 0.935696 3.609825 3.186963 3.609826 5.496211V438.907539c101.134093 0 358.766264-2.344237 358.766264-276.037183 0-143.334362-98.335004-262.920451-229.126447-290.536465 210.146622 29.428425 372.706728 213.619492 372.706729 438.865202 0 418.337881-432.671217 421.868732-502.346546 421.868732V890.080736c0 2.312248-1.368555 4.498536-3.609826 5.466221-2.301251 0.937695-4.822431 0.375878-6.470894-1.280583L102.635199 582.331872z m0 0"  horiz-adv-x="1024" />

    
    <glyph glyph-name="import" unicode="&#58889;" d="M65.342-126.62599999999998c-36.031 0-65.342 30.625-65.342 68.126V691.499c0 37.531 29.311 68.03 65.342 68.03h99.72c24.625 0 45.313-14.906 54-38.905 8.625-24 2.5-49.374-16.031-66.25l-20.345-18.563h-63.875V-0.75h646.53V148.00099999999998l15.439 11.498c11.187 8.25 24.249 12.75 37.873 12.75 36.126 0 65.438-30.626 65.438-68.124V-58.5c0-37.501-29.251-68.126-65.25-68.126H65.342z m0 0M554.688 196.25L171.623 545.7180000000001 554.688 895.154v-198.499c69.655-1.281 130.903-10.22 181.967-26.626 56.437-18.188 103.874-47.718 141-87.748 36.438-39.313 66.373-85.72 89.061-137.938 22.377-51.47 41.252-115.969 56.064-191.595l0.312-1.749v-1.875c0-15.5-8.688-27.124-22.624-30.249-2.376-0.625-4.938-0.999-7.499-0.999-9.75 0-18.689 4.873-25.188 13.623-22 27.998-71.753 59.626-108.188 82.812-8.626 5.438-16.626 10.532-23.563 15.125-34.688 22.969-72.624 40.062-112.5 50.625-29.875 7.937-36.688 8.282-51.624 9.158-5.313 0.342-11.376 0.655-19.565 1.375-27.747 2.375-60.623 3.687-97.652 4.032V196.25h-0.001z m0 0"  horiz-adv-x="1024" />

    
    <glyph glyph-name="export" unicode="&#58890;" d="M65.345-126.62300000000005c-36.033 0-65.345 30.625-65.345 68.125V691.499c0 37.533 29.313 68.033 65.345 68.033h99.717c24.627 0 45.313-14.908 54.002-38.907 8.625-24 2.5-49.375-16.033-66.25l-20.345-18.563h-63.875v-636.561h646.532v148.75l15.437 11.5c11.187 8.25 24.25 12.749 37.874 12.749 36.125 0 65.438-30.624 65.438-68.123v-162.625c0-37.5-29.249-68.125-65.25-68.125H65.345z m0 0M639.968 196.25099999999998V394.625c-37-0.342-69.875-1.655-97.625-4.03-8.187-0.72-14.25-1.032-19.562-1.375-14.938-0.875-21.75-1.221-51.625-9.158-39.875-10.563-77.813-27.654-112.5-50.625-6.938-4.592-14.938-9.688-23.563-15.125-36.437-23.186-86.186-54.812-108.187-82.812-6.499-8.749-15.437-13.625-25.187-13.625-2.563 0-5.125 0.376-7.5 1-13.937 3.126-22.625 14.752-22.625 30.251V251l0.313 1.751c14.812 75.624 33.687 140.124 56.063 191.594 22.687 52.218 52.624 98.625 89.062 137.938 37.125 40.029 84.562 69.562 141 87.75 51.062 16.404 112.313 25.341 181.937 26.625V895.157l383.064-349.437-383.065-349.469z m0 0"  horiz-adv-x="1024" />

    
    <glyph glyph-name="delete-tab" unicode="&#58891;" d="M87.172642 737.244206c0 29.196445 23.793434 52.895948 53.107792 52.895948h265.491992V843.072076c0 29.227422 23.793434 52.927924 53.137769 52.927924h106.17961c29.344336 0 53.167747-23.700502 53.167747-52.927924v-52.931922h265.432037c29.315357 0 53.13677-23.699503 53.13677-52.895948v-52.961899H87.172642v52.961899z m796.516947-158.822744v-652.767074c0-29.228421-23.822412-52.898946-53.13777-52.898946h-637.199567c-29.279384 0-53.071818 23.670524-53.071818 52.898946v705.698996h743.409155v-52.931922zM352.700608 472.593593c0 29.197444-23.792434 52.931921-53.106792 52.931921-29.341338 0-53.133772-23.734477-53.133773-52.931921v-441.015407c0-29.22942 23.792434-52.9609 53.133773-52.9609 29.314358 0 53.106792 23.731479 53.106792 52.9609V472.593593z m212.389197 0c0 29.197444-23.822412 52.931921-53.072818 52.931921-29.314358 0-53.106792-23.734477-53.106792-52.931921v-441.015407c0-29.22942 23.792434-52.9609 53.106792-52.9609 29.250405 0 53.072817 23.731479 53.072818 52.9609V472.593593z m212.45315 0c0 29.197444-23.826409 52.931921-53.138769 52.931921-29.310361 0-53.135771-23.734477-53.135771-52.931921v-441.015407c0-29.22942 23.82541-52.9609 53.135771-52.9609 29.312359 0 53.138769 23.731479 53.138769 52.9609V472.593593z"  horiz-adv-x="1024" />

    
    <glyph glyph-name="delete1" unicode="&#58894;" d="M87.172642 737.244206c0 29.196445 23.793434 52.895948 53.107792 52.895948h265.491992V843.072076c0 29.227422 23.793434 52.927924 53.137769 52.927924h106.17961c29.344336 0 53.167747-23.700502 53.167747-52.927924v-52.931922h265.432037c29.315357 0 53.13677-23.699503 53.13677-52.895948v-52.961899H87.172642v52.961899z m796.516947-158.822744v-652.767074c0-29.228421-23.822412-52.898946-53.13777-52.898946h-637.199567c-29.279384 0-53.071818 23.670524-53.071818 52.898946v705.698996h743.409155v-52.931922zM352.700608 472.593593c0 29.197444-23.792434 52.931921-53.106792 52.931921-29.341338 0-53.133772-23.734477-53.133773-52.931921v-441.015407c0-29.22942 23.792434-52.9609 53.133773-52.9609 29.314358 0 53.106792 23.731479 53.106792 52.9609V472.593593z m212.389197 0c0 29.197444-23.822412 52.931921-53.072818 52.931921-29.314358 0-53.106792-23.734477-53.106792-52.931921v-441.015407c0-29.22942 23.792434-52.9609 53.106792-52.9609 29.250405 0 53.072817 23.731479 53.072818 52.9609V472.593593z m212.45315 0c0 29.197444-23.826409 52.931921-53.138769 52.931921-29.310361 0-53.135771-23.734477-53.135771-52.931921v-441.015407c0-29.22942 23.82541-52.9609 53.135771-52.9609 29.312359 0 53.138769 23.731479 53.138769 52.9609V472.593593z"  horiz-adv-x="1024" />

    
    <glyph glyph-name="edit" unicode="&#58896;" d="M976.002-128H48.001c-26.499 0-48 22.866-48 51.052 0 28.185 21.5 51.05 48 51.05h928.001c26.498 0 47.999-22.865 47.999-51.05 0-28.186-21.501-51.052-47.999-51.052zM781.314 628.731L646.188 772.147 747.532 879.734c18.656 19.808 48.905 19.808 67.594 0l67.563-71.725c18.654-19.81 18.654-51.916 0-71.724L781.314 628.731z m-439.188-466.21L207.001 305.97l405.406 430.316 135.125-143.417-405.406-430.348zM127.97 78.92999999999995l44.969 191.21 135.156-143.48-180.125-47.73z"  horiz-adv-x="1024" />

    
    <glyph glyph-name="configure" unicode="&#58897;" d="M984.558 462.8h-47.301c-21.663 0-44.606 16.939-51.078 37.634l-27.107 65.963c-10.248 19.083-6.054 47.219 9.191 62.551l33.555 33.468c15.357 15.357 15.357 40.466 0 55.773l-55.744 55.687c-15.332 15.303-40.386 15.303-55.744 0l-33.525-33.497c-15.274-15.333-43.468-19.498-62.604-9.275l-65.852 27.133c-20.637 6.417-37.638 29.414-37.638 51.078V856.586C590.71 878.196 572.935 896 551.354 896h-78.741c-21.721 0-39.468-17.804-39.468-39.414v-47.272c0-21.664-16.86-44.66-37.58-51.078l-65.938-27.133c-19.134-10.223-47.215-6.083-62.493 9.275L233.5 773.875c-15.303 15.303-40.357 15.303-55.661 0l-55.687-55.687c-15.332-15.307-15.332-40.416 0-55.719l33.439-33.522c15.386-15.332 19.556-43.467 9.279-62.551l-27.137-65.992c-6.417-20.691-29.385-37.634-51.078-37.634l-47.241 0.03C17.75 462.8 0 445.107 0 423.415v-78.74c0-21.692 17.75-39.414 39.414-39.414h47.244c21.692-0.054 44.606-16.997 50.995-37.634l27.22-65.938c10.194-19.138 6.054-47.355-9.279-62.605l-33.522-33.468c-15.25-15.361-15.25-40.411 0-55.772l55.769-55.716c15.304-15.332 40.358-15.332 55.661 0l33.58 33.526c15.249 15.274 43.384 19.469 62.41 9.138l66.075-27.137c20.719-6.443 37.58-29.386 37.58-51.078v-47.136c0-21.634 17.721-39.355 39.468-39.355h78.741c21.58 0 39.355 17.722 39.355 39.355v47.136c0 21.692 17.001 44.635 37.638 51.078l65.992 27.137c19.079 10.331 47.301 6.137 62.604-9.138l33.385-33.526c15.358-15.332 40.412-15.332 55.744 0l55.744 55.716c15.357 15.361 15.357 40.411 0 55.772l-33.555 33.468c-15.245 15.25-19.439 43.468-9.191 62.605l27.107 65.938c6.472 20.637 29.497 37.58 51.078 37.58h47.301c21.606 0 39.327 17.718 39.327 39.381v78.827c0 21.692-17.721 39.385-39.327 39.385m-275.611-78.716c0-108.764-88.127-196.867-196.895-196.867-108.764 0-196.92 88.103-196.92 196.867 0 108.739 88.156 196.895 196.92 196.895 108.768 0 196.895-88.156 196.895-196.895"  horiz-adv-x="1024" />

    
    <glyph glyph-name="videoplay" unicode="&#58898;" d="M511.096685 894.09337C229.158034 894.09337 0.05 664.985336 0.05 383.046685c0-281.917688 229.108034-511.046685 511.046685-511.046685 281.917688 0 511.046685 229.128997 511.046685 511.046685 0 281.938651-229.128997 511.046685-511.046685 511.046685z m189.933278-540.862982L434.449166 199.91238899999996c-22.99735-12.778413-51.112654 3.421951-51.112655 29.815299V537.2042c0 26.415309 28.115304 42.593712 51.112655 29.816297l266.580797-154.157515c22.99735-13.637894 22.99735-45.994701 0-59.632594z m0 0"  horiz-adv-x="1024" />

    
    <glyph glyph-name="add" unicode="&#58899;" d="M426.667 469.333H0v-170.666h426.667V-128h170.665V298.66700000000003H1024V469.333H597.332V896H426.667v-426.667z m0 0"  horiz-adv-x="1024" />

    
    <glyph glyph-name="add1" unicode="&#58900;" d="M0 896h1024v-1024H0zM462 784h100v-800H462zM112 434h800v-100H112z"  horiz-adv-x="1024" />

    
    <glyph glyph-name="remove" unicode="&#58901;" d="M512 384m-512 0a512 512 0 1 1 1024 0 512 512 0 1 1-1024 0ZM229.153 596.13l70.71 70.71 494.97-494.97-70.71-70.71zM724.13 666.847l70.71-70.71-494.97-494.97-70.71 70.71z"  horiz-adv-x="1024" />

    
    <glyph glyph-name="implement" unicode="&#58902;" d="M512 384m-512 0a512 512 0 1 1 1024 0 512 512 0 1 1-1024 0ZM146.953 434.001h596.396V334H146.953zM581.132 679.9159999999999L877.047 384 581.132 88.08600000000001"  horiz-adv-x="1024" />

    
    <glyph glyph-name="view" unicode="&#58903;" d="M1023.969 382.044c-0.031-0.437-0.063-0.842-0.094-1.278-0.031-0.219-0.031-0.437-0.063-0.655a8.11 8.11 0 0 0-0.124-0.902c-0.031-0.374-0.063-0.749-0.125-1.092-0.031-0.063-0.031-0.092-0.031-0.154-1.25-8.07-4.969-15.644-10.688-21.469-10.748-12.993-22.499-25.177-34.28-37.141-63.81-64.592-137.027-122.202-217.183-164.019-51.251-26.702-105.969-48.231-162.717-58.608-62.437-11.371-124.937-10.812-187.028 2.681-107.437 23.274-204.748 81.136-289.871 150.338-39.532 32.094-78.375 67.24-111.03 106.749-14.313 17.293-14.313 37.731 0 55.026 10.718 12.991 22.468 25.175 34.28 37.141 63.781 64.589 136.999 122.203 217.154 163.985 51.217 26.703 105.966 48.265 162.748 58.609 62.406 11.404 124.872 10.812 186.997-2.619 107.435-23.306 204.746-81.197 289.87-150.369 39.499-32.092 78.373-67.27 111.028-106.747 5.719-5.827 9.438-13.43 10.72-21.5v-0.125c0.063-0.343 0.094-0.716 0.156-1.09 0.03-0.312 0.093-0.624 0.093-0.936 0.031-0.186 0.063-0.437 0.063-0.653 0.031-0.405 0.094-0.842 0.094-1.278 0.031-0.653 0.063-1.277 0.063-1.931-0.001-0.656-0.001-1.31-0.032-1.963zM512.009 583.4200000000001c-106.029 0-191.998-85.718-191.998-191.438s85.968-191.438 191.998-191.438 191.995 85.718 191.995 191.438S618.038 583.4200000000001 512.009 583.4200000000001z m0-287.156c-53.031 0-95.999 42.843-95.999 95.719s42.968 95.719 95.999 95.719c53.03 0 95.997-42.843 95.997-95.719s-42.967-95.719-95.997-95.719z"  horiz-adv-x="1024" />

    
    <glyph glyph-name="view_disabled" unicode="&#58904;" d="M1023.97 382.03700000000003l-0.093-1.278c-0.034-0.219-0.034-0.438-0.064-0.656a8.333 8.333 0 0 0-0.123-0.906c-0.031-0.376-0.065-0.752-0.127-1.094-0.031-0.062-0.031-0.096-0.031-0.157-1.252-8.092-4.969-15.682-10.687-21.523-10.751-13.025-22.501-25.24-34.282-37.236-63.809-64.758-137.027-122.521-217.183-164.443-51.247-26.771-105.966-48.357-162.713-58.76-62.437-11.404-124.935-10.84-187.027 2.684-49.25 10.688-96.248 28.928-141.059 51.982l1.436 1.438 128.03 84.221c31.561-22.711 70.122-36.238 111.964-36.238 106.028 0 191.996 85.94 191.996 191.934 0 14.153-1.624 27.93-4.562 41.205L868.66 544.482a990.695 990.695 0 0 0 33.123-25.865c39.501-32.179 78.373-67.446 111.03-107.026 5.718-5.842 9.436-13.466 10.688-21.554 0-0.034 0.03-0.096 0.03-0.126 0.062-0.345 0.093-0.718 0.158-1.094 0.03-0.311 0.092-0.625 0.092-0.937 0.031-0.188 0.062-0.438 0.062-0.656 0.034-0.407 0.096-0.844 0.096-1.282 0.031-0.653 0.062-1.279 0.062-1.935-0.001-0.657-0.001-1.314-0.031-1.97z m-511.958-86.002c-6.282 0-12.437 0.656-18.374 1.813l112.153 73.756c-9.373-43.205-47.78-75.569-93.779-75.569z m421.116 339.791L101.429 92.20100000000002l-0.281-0.188v0.031a23.685 23.685 0 0 0-13.125-3.936c-13.251 0-24 10.744-24 23.992 0 8.402 4.343 15.773 10.875 20.053v0.035L906.597 675.81l0.28 0.188v-0.033a23.683 23.683 0 0 0 13.126 3.937c13.247 0 23.999-10.747 23.999-23.992 0.001-8.401-4.342-15.774-10.874-20.084zM512.012 487.969c9.155 0 17.968-1.374 26.376-3.747l-121.687-81.1c5.533 47.766 46.064 84.847 95.311 84.847z m116.53 56.325c-32.343 24.771-72.655 39.642-116.53 39.642-106.028 0-191.996-85.94-191.996-191.934 0-16.963 2.408-33.301 6.532-48.951l-166.527-110.99-8.72-5.813c-10 7.559-19.842 15.244-29.529 23.147C82.24 281.571 43.399 316.80999999999995 10.71 356.42100000000005c-14.281 17.339-14.281 37.83 0 55.169 10.751 13.025 22.501 25.24 34.313 37.236 63.781 64.758 136.997 122.519 217.151 164.414 51.248 26.771 105.966 48.389 162.744 58.759 62.406 11.434 124.874 10.84 186.997-2.624 46.281-10.09 90.561-26.865 132.903-47.953l-8.813-5.499-107.463-71.629z"  horiz-adv-x="1024" />

    


  </font>
</defs>
</svg>
