<?xml version="1.0" standalone="no"?>
<!DOCTYPE svg PUBLIC "-//W3C//DTD SVG 1.1//EN" "http://www.w3.org/Graphics/SVG/1.1/DTD/svg11.dtd">
<svg xmlns="http://www.w3.org/2000/svg">
<metadata>camunda Services GmbH</metadata>
<defs>
<font id="bpmn" horiz-adv-x="1000" >
<font-face font-family="bpmn" font-weight="400" font-stretch="normal" units-per-em="1000" ascent="850" descent="-150" />
<missing-glyph horiz-adv-x="1000" />
<glyph glyph-name="screw-wrench" unicode="&#xe800;" d="M756 704c-55 0-108-22-147-61-39-39-61-92-61-147 0-55 22-108 61-147 39-39 92-61 147-61 91 0 171 59 198 146l-149-40-116 77 62 124 79 21 78 21c-39 42-94 67-152 67z m-247-278l-461-316c-14-42 32-111 80-114l451 310c-36 31-61 73-70 120z" horiz-adv-x="1000" />

<glyph glyph-name="trash" unicode="&#xe801;" d="M429 743c-58-4-70 11-71-52l0-9-172-56c-20-5-20-29 0-30l624 0c19 0 19 25 0 30l-168 55 0 10c0 62-7 48-71 52l-71 0z m-215-204c-14 0-25-12-24-26l50-555c1-12 11-22 24-22l457 0c13 0 23 9 25 22l64 554c2 15-9 27-24 27l-143 0-143 0z m27-49l259 0 259 0-59-505-414 0z m120-73c-1 0-2 0-3 0-16-1-28-15-25-31l44-320c2-15 16-26 31-24 15 2 25 17 22 32l-44 319c-2 13-12 23-25 24z m280 0c-13 0-25-10-27-24l-44-319c-3-15 7-30 22-32 16-2 29 9 31 24l44 320c3 16-9 30-26 31z" horiz-adv-x="1000" />

<glyph glyph-name="conditional-flow" unicode="&#xe802;" d="M911 749c0 0-285-146-431-214 31-28 60-59 90-89-140-142-77-81-199-205l-209-34-41-247 247 40 3 15 31 194c123 125 60 64 201 206 30-29 60-60 90-90 77 153 218 424 218 424z m-552-552l-27-160-160-27 26 161 161 26z" horiz-adv-x="1000" />

<glyph glyph-name="default-flow" unicode="&#xe803;" d="M911 749c0 0-285-146-431-214 31-28 60-59 90-89-91-93-183-186-275-279l-166 0 0-43 124 0c-42-42-84-84-126-126 11-11 22-21 33-31 52 52 104 105 156 157l175 0 0 43-133 0c82 83 163 166 245 248 30-29 60-60 90-90 77 153 218 424 218 424z" horiz-adv-x="1000" />

<glyph glyph-name="gateway-parallel" unicode="&#xe804;" d="M500 802c-9 0-19-4-26-11l-415-415c-14-14-14-38 0-52l415-415c14-14 38-14 52 0l415 415c14 14 14 38 0 52l-415 415c-7 7-17 11-26 11z m0-62l390-390-390-390-390 390 390 390z m-11-161c0 0-4-1-4-1 0 0-4-3-4-3 0 0-3-4-3-4 0 0-1-4-1-4l0-194-194 0 0 0c0 0-4-1-4-1 0 0-4-3-4-3l0 0c0 0-3-4-3-4 0 0-1-4-1-4l0-21c0 0 1-5 1-5 0 0 3-4 3-4 0 0 4-3 4-3 0 0 4-1 4-1l194 0 0-194 0 0c0 0 1-4 1-4 0 0 3-4 3-4 0 0 4-3 4-3 0 0 4-1 4-1l22 0c0 0 4 1 4 1 0 0 4 3 4 3 0 0 3 4 3 4 0 0 1 4 1 4l0 194 194 0c0 0 4 1 4 1 0 0 4 3 4 3 0 0 3 4 3 4 0 0 1 4 1 4l0 22c0 0-1 4-1 4 0 0-3 4-3 4 0 0-4 3-4 3 0 0-4 1-4 1l-194 0 0 194c0 0-1 4-1 4 0 0-3 4-3 4 0 0-4 3-4 3 0 0-4 1-4 1l-22 0z" horiz-adv-x="1000" />

<glyph glyph-name="intermediate-event-catch-cancel" unicode="&#xe805;" d="M499 802c-220 4-425-177-448-396-24-185 78-380 247-461 160-80 368-56 501 66 134 118 190 318 128 486-57 167-217 293-393 303-12 1-23 2-35 2z m-5-49c202 7 391-161 407-362 19-178-92-361-262-420-166-61-368-2-468 145-103 144-99 356 18 490 74 90 188 146 305 147z m8-44c-186 6-358-158-361-344-9-169 116-334 283-367 155-33 328 46 397 190 71 140 39 327-83 430-64 57-150 91-236 91z m-2-48c164 4 314-144 311-308 3-152-119-297-272-312-143-19-295 73-336 213-43 134 14 295 138 364 48 28 103 43 159 43z m-112-111c-29-30-58-59-87-88 37-38 75-75 112-113-37-36-74-73-110-110 28-29 57-58 86-86 37 37 73 73 110 110 38-37 75-75 113-112 29 29 58 58 88 87-38 38-76 75-113 113 37 37 74 73 110 110-28 29-57 58-86 86-37-36-73-73-110-110-38 37-75 75-113 113z m0-35c38-38 75-75 113-113 37 37 73 74 110 111 17-17 35-35 52-52-37-37-74-73-111-110 38-38 75-75 113-113-18-18-35-35-53-53-38 38-75 75-113 113-36-37-73-74-110-111-17 17-35 35-52 52 37 37 74 74 111 110-38 38-75 76-113 113 18 18 35 35 53 53z" horiz-adv-x="1000" />

<glyph glyph-name="intermediate-event-catch-non-interrupting-message" unicode="&#xe806;" d="M295 506l0-312 410 0 0 312-410 0z m91-49l228 0c-38-30-76-60-114-90-38 30-76 60-114 90z m270-28l0-186-312 0 0 186c52-42 104-83 156-125 52 42 104 83 156 125z m-156 373l0 0-5 0-1 0 0 0-5 0 0 0 0 0-6-1 0 0 0 0-5 0 0 0 0 0-6 0 0 0 0 0-5-1 0 0-1 0-5 0 0 0 0 0-5 0-1 0 0-1-5 0 0 0 0 0-5-1-1 0 0 0-5 0 0 0 0 0-5-1-1 0 0 0-5-1 0 0 0 0-5-1-1 0 0 0-5-1 0 0 0 0-5-1 0 0-1 0-5-1 0 0 0 0-5-1 0 0 0 0-6-2 0 0 0 0-5-1 0 0 0 0-5-1-4-2-4-2-4-3-2-4-3-4-1-4 0-5 0-4 1-4 2-5 3-3 3-3 4-3 4-1 5-1 4 0 4 1 5 1 5 1 4 1 5 1 5 1 5 1 5 1 5 1 5 0 4 1 5 1 5 0 5 1 5 0 5 1 5 0 5 0 5 1 5 0 5 0 5 0 5 0 5 0 5 0 5-1 5 0 5 0 5-1 5 0 5-1 5 0 5-1 5-1 4 0 5-1 5-1 5-1 5-1 4-1 5 0 4 0 5 1 4 2 3 3 4 3 2 4 2 4 1 4 0 5-1 4-2 5-2 4-3 3-4 3-4 2-3 1-5 1 0 0 0 0-5 1 0 0-1 0-5 1 0 0 0 0-5 1 0 0 0 0-6 1 0 0 0 0-5 1 0 0 0 0-6 1 0 0 0 0-5 0 0 0 0 0-6 1 0 0 0 0-5 0 0 1 0 0-6 0 0 0 0 0-5 0 0 0-1 0-5 1 0 0 0 0-5 0-1 0 0 0-5 0 0 0 0 0-6 1 0 0 0 0-5 0 0 0 0 0-6 0 0 0z m255-83l-5 0-4-1-5-2-3-2-4-4-2-3-2-4-1-5-1-4 1-5 1-4 3-4 3-4 2-2 2-1 4-3 4-3 4-3 3-3 4-4 4-3 4-3 3-3 4-4 4-3 3-4 4-3 3-4 4-3 3-4 4-4 3-3 3-4 3-4 4-4 3-3 3-4 3-4 3-4 3-4 3-4 2-4 3-4 3-5 3-4 2-4 3-4 2-4 3-5 2-4 2-4 3-5 2-4 1-2 2-4 4-3 3-3 4-2 5-1 4-1 5 1 4 1 4 2 4 3 3 3 2 4 2 4 0 5 0 4-1 5-1 3-1 3 0 0 0 0-3 5 0 0 0 0-2 5 0 0-1 0-2 4 0 1 0 0-3 4 0 0 0 1-2 4-1 0 0 0-2 5 0 0 0 0-3 5 0 0 0 0-3 4 0 0 0 0-3 5 0 0 0 0-3 5 0 0 0 0-3 4 0 0 0 0-3 5 0 0-1 0-3 4 0 0 0 0-3 5 0 0 0 0-3 4 0 0 0 0-4 4 0 1 0 0-3 4 0 0 0 0-3 4-1 0 0 0-3 4 0 1 0 0-4 4 0 0 0 0-3 4 0 0-1 0-3 4 0 0 0 0-4 4 0 0 0 0-4 4 0 0 0 1-4 3 0 0 0 1-3 3-1 0 0 1-3 3-1 0 0 0-3 4-1 0 0 0-4 4 0 0 0 0-4 4 0 0 0 0-4 3 0 1 0 0-4 3 0 0 0 0-4 4 0 0-1 0-4 3 0 0 0 1-4 3 0 0 0 0-4 3 0 0-1 0-4 4 0 0 0 0-4 3 0 0 0 0-2 1-4 3-4 1-4 1z m-519-10l-5 0-4-1-4-2-4-2-1-1 0 0 0 0-4-3 0-1 0 0-4-3 0 0-1 0-4-4 0 0 0 0-4-3 0 0 0-1-4-3 0 0 0 0-4-4 0 0 0 0-4-4 0 0 0 0-4-4 0 0 0 0-4-3 0-1 0 0-4-3 0-1 0 0-4-3 0-1 0 0-4-4 0 0 0 0-4-4 0 0 0 0-3-4 0 0-1 0-3-4 0 0 0 0-4-4 0 0 0-1-3-4 0 0 0 0-4-4 0 0 0 0-3-4 0 0 0-1-4-4 0 0 0 0-3-4 0 0 0 0-3-5 0 0 0 0-3-4 0 0-1 0-3-5 0 0 0 0-3-4 0 0 0 0-3-5 0 0 0 0-3-5 0 0 0 0-3-4 0 0 0 0-2-5-1 0 0 0-2-5 0 0 0 0-3-4 0-1 0 0-3-4 0 0 0-1-2-4 0 0 0 0-3-5 0 0 0 0-2-5 0 0-1 0-2-5 0 0 0 0-2-5 0 0 0 0-3-5 0 0 0 0-1-3-1-4-1-5 0-4 1-5 2-4 3-4 3-3 4-2 4-2 4-1 5 0 4 0 5 2 3 2 4 3 3 4 2 3 1 3 2 4 2 5 2 4 2 4 3 5 2 4 2 4 3 5 2 4 3 4 3 4 2 4 3 5 3 4 2 4 3 4 3 4 3 4 3 4 3 4 3 3 4 4 3 4 3 4 3 3 4 4 3 4 4 3 3 4 4 3 3 4 4 3 4 4 3 3 4 3 4 3 4 4 4 3 1 1 3 3 3 3 2 5 1 4 0 4-1 5-1 4-2 4-3 4-4 3-4 2-4 2-4 0z m264 0l0 0-4 0 0 0-1 0-4 0 0 0 0 0-4 0 0 0 0 0-5 0 0-1 0 0-4 0 0 0 0 0-4 0-1 0 0 0-4 0 0 0 0 0-4-1 0 0-1 0-1 0-4-1-5-2-3-2-4-3-2-4-2-4-2-4 0-5 1-4 1-5 2-4 3-3 4-3 4-3 4-1 4-1 4 0 1 1 4 0 4 0 4 1 4 0 3 0 4 0 4 0 4 0 4 0 4 0 4 0 3 0 4 0 4-1 4 0 4 0 3-1 4 0 4-1 4 0 4-1 3-1 4 0 4-1 4-1 3 0 4-1 4-1 3-1 4-1 4-1 3-1 4-1 3-2 4-1 4-1 3-1 4-2 3-1 4-1 3-2 0 0 0 0 4-1 5-1 5 0 4 1 4 2 4 3 3 3 2 4 2 4 1 5 0 4 0 5-2 4-2 4-3 3-4 3-3 2 0 0-1 0 0 0-3 2-1 0 0 0-4 1 0 0 0 0-4 2 0 0 0 0-4 1 0 0 0 0-4 2 0 0 0 0-4 1 0 0 0 0-4 2 0 0 0 0-4 1 0 0-1 0-3 1-1 0 0 0-4 2 0 0 0 0-4 1 0 0 0 0-4 1 0 0 0 0-4 1 0 0-1 0-4 1 0 0 0 0-4 1 0 0 0 0-4 1 0 0 0 0-4 1-1 0 0 0-4 1 0 0 0 0-4 1 0 0 0 0-4 0-1 0 0 0-4 1 0 0 0 0-4 1 0 0 0 0-5 0 0 0 0 0-4 1 0 0 0 0-4 0 0 0-1 0-4 1 0 0 0 0-4 0 0 0 0 0-5 0 0 0 0 0-4 0 0 0 0 1-4 0-1 0 0 0-4 0 0 0 0 0-4 0 0 0-1 0-4 0 0 0z m-155-39l-4 0-5-1-3-1-2-1 0 0 0 0-4-2 0 0 0 0-3-2-1-1 0 0-3-2 0 0-1 0-3-2 0 0 0 0-4-2 0 0 0 0-4-2 0-1 0 0-3-2 0 0-1 0-3-2 0 0 0 0-4-3 0 0 0 0-3-2 0 0 0 0-4-3 0 0 0 0-3-2 0 0-1-1-3-2 0 0 0 0-3-3 0 0-1 0-3-2 0-1 0 0-3-2 0 0-1 0-3-3 0 0 0 0-3-3 0 0 0 0-3-3-1 0 0 0-3-3 0 0 0 0-3-3 0 0 0 0-3-3 0 0 0 0-3-3-1 0 0 0-3-3 0 0 0 0-3-3 0 0 0 0-3-3 0-1 0 0-3-3 0 0 0 0-3-3 0 0 0 0-3-3 0 0 0 0-3-4 0 0 0 0-3-3 0 0 0 0-2-3-1 0 0-1-2-3 0 0 0 0-3-3 0 0 0-1-3-3 0 0 0 0-2-3 0 0-1-1-2-3 0 0 0 0-2-3-1-1 0 0-2-3 0 0 0 0-2-4-1 0 0 0-2-3-2-4-1-4-1-5 1-4 1-5 2-4 3-3 3-4 4-2 4-2 4-1 5 0 4 1 5 2 4 2 3 3 2 3 2 3 2 3 2 3 3 3 2 4 2 3 2 3 3 3 2 3 3 2 2 3 3 3 2 3 3 3 2 3 3 3 3 2 3 3 2 3 3 2 3 3 3 2 3 3 3 2 3 3 3 2 3 3 3 2 3 2 3 3 3 2 3 2 3 2 3 2 3 2 4 2 3 2 3 2 3 2 4 2 3 2 2 0 3 3 4 3 2 4 2 4 1 4 1 5-1 4-1 5-3 4-2 3-4 3-4 2-4 2-5 0z m393-59l-5-1-4-1-4-1-4-3-3-3-3-4-1-4-1-5-1-4 1-5 2-4 2-4 2-3 3-2 3-3 2-3 3-3 2-3 3-3 2-3 3-2 2-3 3-3 2-3 2-3 3-4 2-3 2-3 2-3 2-3 2-3 2-4 2-3 2-3 2-3 2-4 2-3 1-3 2-4 2-3 1-3 2-4 2-3 1-4 1-3 2-4 1-3 2-4 1-3 1-4 1-4 2-3 1-4 1-3 0-3 2-4 2-4 4-3 3-3 4-2 5-1 4 0 5 0 4 1 4 3 4 2 3 4 2 4 2 4 0 5 0 4-1 4 0 2 0 0 0 0-2 4 0 0 0 1-1 3 0 1 0 0-1 4 0 0 0 0-2 4 0 0 0 0-1 4 0 0 0 0-2 4 0 0 0 0-1 4 0 0 0 0-2 4 0 0 0 0-1 4 0 0 0 1-2 3 0 0 0 1-2 3 0 0 0 1-2 3 0 0 0 1-1 3 0 0-1 1-1 3 0 0 0 0-2 4 0 0 0 0-2 4 0 0 0 0-2 4 0 0 0 0-2 4 0 0-1 0-1 4-1 0 0 0-2 3 0 1 0 0-2 3 0 0 0 0-2 4 0 0 0 0-2 4-1 0 0 0-2 3 0 0 0 1-2 3 0 0 0 0-3 4 0 0 0 0-2 3 0 0 0 1-3 3 0 0 0 0-2 3 0 1-1 0-2 3 0 0 0 0-3 3 0 1 0 0-2 3-1 0 0 0-2 3 0 1 0 0-3 3 0 0 0 0-3 3 0 0 0 0-3 4 0 0 0 0-3 3 0 0 0 0-3 3 0 0 0 0-3 3 0 0 0 1-3 3 0 0 0 0-3 2-3 3-4 3-5 1-4 1z m-564-171l-5 0-4-1-4-2-4-2-3-4-3-3-2-4-1-4-1-4 0 0 0 0 0-4 0 0-1 0 0-4 0-1 0 0-1-4 0 0 0 0-1-4 0 0 0 0 0-5 0 0 0 0-1-4 0 0 0 0 0-4 0 0 0-1 0-4 0 0-1 0 0-4 0 0 0 0 0-5 0 0 0 0 0-4 0 0 0 0-1-4 0-1 0 0 0-4 0 0 0 0 0-4 0 0 0-1 0-4 0 0 0 0 0-4 0 0 0-1 0-4 0 0 0 0 0-4 0 0 0 0 1-5 0 0 0 0 0-4 0 0 0 0 0-4 0-1 0 0 0-4 1 0 0 0 0-4 0 0 0-1 0-4 0 0 0 0 1-4 0 0 0 0 0-4 0-1 0 0 1-4 0 0 0 0 1-4 0 0 0 0 0-4 1-1 0 0 0-4 0 0 0 0 1-4 0 0 0 0 1-4 0-1 0 0 1-4 0 0 0 0 1-4 0 0 0 0 1-4 0 0 0-1 1-4 0 0 0 0 1-4 0 0 0 0 1-4 0 0 0 0 2-4 0 0 0 0 1-4 0-1 0 0 1-1 1-4 3-4 3-3 4-3 4-2 4-1 5 0 4 1 5 1 4 2 3 3 3 4 2 4 2 4 0 5 0 4-1 4 0 1-2 4-1 4-1 3-1 4-1 3-1 4 0 4-1 4-1 3-1 4 0 4-1 4-1 3 0 4-1 4 0 4 0 3-1 4 0 4 0 4-1 4 0 4 0 3 0 4 0 4 0 4 0 4 0 4 0 3 1 4 0 4 0 4 1 4 0 3 0 4 1 4 0 4 1 4 1 3 0 4 1 4 0 4 0 5-1 4-2 4-3 4-3 3-4 2-5 2-4 1z m754-46l-5 0-4-1-4-2-4-2-3-4-3-4-2-4 0-4-1-4 1-4 0-5 0-5 0-5 0-5 0-5 0-5-1-5 0-5 0-5-1-5 0-5-1-5 0-5-1-5-1-4 0-5-1-5-1-5-1-5-1-5-1-5-1-4-1-5-1-5-2-5-1-4-2-5-1-5-1-4-2-5-2-5-1-4-2-5-2-4-2-5-2-5-2-4-2-5-2-4-2-4-2-5-2-4-2-5-1-4 0-5 1-4 2-4 2-4 3-4 4-2 4-2 4-2 5 0 4 1 5 1 4 2 3 3 3 3 2 3 3 5 0 0 0 0 2 5 0 0 0 0 2 5 0 0 0 0 3 5 0 0 0 0 2 5 0 0 0 0 2 5 0 0 0 0 2 5 0 0 0 0 2 5 0 0 0 0 2 5 0 0 0 1 2 4 0 1 0 0 2 5 0 0 0 0 2 5 0 0 0 0 2 5 0 0 0 0 2 5 0 0 0 1 1 5 0 0 0 0 2 5 0 0 0 0 1 5 0 0 0 0 2 5 0 1 0 0 1 5 0 0 0 0 1 5 0 0 0 0 2 6 0 0 0 0 1 5 0 0 0 0 1 5 0 1 0 0 1 5 0 0 0 0 1 5 0 0 0 1 1 5 0 0 0 0 1 5 0 0 0 1 1 5 0 0 0 0 0 5 0 0 0 1 1 5 0 0 0 0 0 5 1 0 0 1 0 5 0 0 0 0 0 5 0 1 0 0 1 5 0 0 0 0 0 6 0 0 0 0 0 5 0 0 0 0 1 6 0 0 0 0 0 5 0 0 0 1 0 5 0 0 0 0 0 6 0 0 0 0 0 5 0 0 0 0-1 6 0 0 0 0 0 4 0 5-2 4-2 4-3 3-4 3-4 2-4 2-4 0z m-853-16l-5 0-4-1-4-1-4-3-4-3-2-4-2-4-1-4-1-4 0-4 0 0 0 0 0-5 0-1 0 0 1-5 0 0 0 0 0-6 0 0 0 0 0-5 0 0 0 0 0-6 0 0 0 0 1-5 0 0 0-1 0-5 0 0 0 0 1-5 0-1 0 0 0-5 0 0 0 0 1-5 0-1 0 0 1-5 0 0 0 0 0-5 0-1 0 0 1-5 0 0 0 0 1-5 0-1 0 0 1-5 0 0 0 0 1-5 0 0 0-1 1-5 0 0 0 0 1-5 0 0 0 0 2-6 0 0 0 0 1-5 0 0 0 0 1-5 0 0 0-1 2-5 0 0 0 0 1-5 0 0 0 0 2-5 0 0 0 0 2-5 0-1 0 0 1-5 0 0 0 0 2-5 0 0 0 0 2-5 0 0 0 0 2-5 0 0 0-1 2-4 0-1 0 0 2-5 0 0 0 0 2-5 0 0 0 0 2-5 0 0 0 0 2-5 0 0 0 0 2-5 0 0 0 0 3-5 0 0 0 0 2-5 0 0 0 0 2-5 1 0 0 0 0-1 3-4 3-3 3-3 4-2 5-1 4 0 5 0 4 1 4 3 4 2 3 4 2 4 2 4 0 5 0 4-1 5-1 3-1 1-2 5-2 4-2 4-2 5-2 4-2 5-2 5-2 4-2 5-1 4-2 5-1 5-2 4-1 5-2 5-1 4-1 5-2 5-1 5-1 4-1 5-1 5-1 5-1 5-1 5 0 5-1 4-1 5 0 5-1 5 0 5-1 5 0 5 0 5-1 5 0 5 0 5 0 5 0 4 0 4-1 5-2 4-3 3-4 4-3 2-5 2-4 0z m756-57l-4 0-5-1-4-2-4-3-3-3-2-4-2-4-1-3 0 0 0 0 0 0 0 0-1-4 0-4-1-4-1-3 0-4-1-4-1-4-1-3-1-4-1-3-1-4-1-4-2-3-1-4-1-3-1-4-2-4-1-3-2-4-1-3-1-4-2-3-2-3-1-4-2-3-2-4-1-3-2-3-2-4-2-3-2-3-2-3-2-4-2-3-2-3-2-3-2-3-2-3-3-3-2-3-2-4-2-1-2-4-2-4-1-5 0-4 1-5 2-4 2-4 3-3 4-3 4-2 4-1 5-1 4 1 4 1 5 2 3 3 3 3 1 1 0 1 0 0 3 3 0 0 0 0 2 3 1 1 0 0 2 3 0 0 0 0 3 4 0 0 0 0 2 3 0 0 0 0 3 4 0 0 0 0 2 3 0 1 0 0 2 3 0 0 1 0 2 4 0 0 0 0 2 4 0 0 0 0 2 3 0 1 0 0 2 3 0 0 1 1 2 3 0 0 0 0 2 4 0 0 0 0 2 4 0 0 0 0 2 4 0 0 0 0 2 4 0 0 0 0 1 4 1 0 0 0 1 4 0 0 0 0 2 4 0 0 0 0 2 4 0 0 0 0 2 4 0 0 0 0 1 4 0 0 0 0 2 4 0 0 0 0 1 4 0 0 0 0 2 4 0 0 0 0 1 4 0 0 0 0 2 4 0 0 0 0 1 4 0 0 0 1 1 4 0 0 0 0 2 4 0 0 0 0 1 4 0 0 0 0 1 4 0 0 0 0 1 4 0 1 0 0 1 4 0 0 0 0 1 4 0 0 0 0 1 4 0 0 0 1 1 4 0 0 0 0 1 4 0 0 0 0 1 4 0 0 0 1 0 4 0 0 0 0 0 0 1 5-1 4-1 4-2 4-3 4-4 3-4 2-4 2-5 0z m-590-160l-4-1-4-2-4-2-4-3-3-3-2-4-1-5-1-4 1-5 1-4 2-4 2-3 1-2 0 0 0 0 3-3 0 0 0 0 3-3 0-1 0 0 3-3 0 0 0 0 3-3 0 0 0 0 3-3 0 0 0 0 3-3 0-1 0 0 3-3 0 0 0 0 3-3 0 0 1 0 3-3 0 0 0 0 3-3 0 0 0 0 3-3 0 0 0 0 3-3 0 0 1 0 3-3 0 0 0 0 3-3 0 0 0 0 3-2 1-1 0 0 3-2 0 0 0 0 3-3 1 0 0 0 3-3 0 0 0 0 3-2 1 0 0-1 3-2 0 0 0 0 4-2 0-1 0 0 3-2 0 0 0 0 4-2 0-1 0 0 3-2 1 0 0 0 3-2 0 0 0 0 4-3 0 0 0 0 4-2 0 0 0 0 3-2 1 0 0 0 3-2 0 0 1 0 3-2 0 0 0-1 4-1 0-1 0 0 4-2 0 0 0 0 4-2 0 0 0 0 4-1 0-1 0 0 4-1 0 0 0 0 4-2 0 0 0 0 4-2 0 0 0 0 4-2 0 0 0 0 4-1 0-1 0 0 4-1 0 0 0 0 4-2 4-1 4 0 5 0 4 1 4 2 4 3 3 4 2 3 2 5 1 4 0 5-1 4-2 4-2 4-4 3-3 3-4 2-3 1-4 2-3 1-4 2-3 1-3 2-4 1-3 2-4 2-3 2-3 1-4 2-3 2-3 2-3 2-4 2-3 2-3 2-3 2-3 2-3 3-3 2-4 2-3 2-2 3-3 2-3 3-3 2-3 3-3 2-3 3-3 2-2 3-3 3-3 3-3 2-2 3-3 3-2 3-3 3-2 3-1 1-4 3-3 3-5 1-4 1-5 1z m426-77l-5 0-4-1-4-2-1-1-4-2-3-1-3-2-4-2-3-2-3-1-4-2-3-1-4-2-3-1-4-2-3-1-4-2-3-1-4-1-4-1-3-1-4-2-3-1-4-1-4-1-3-1-4-1-4 0-3-1-4-1-4-1-4 0-3-1-4-1-4 0-4-1-3 0-4 0-4-1-4 0-4 0-4-1-3 0-4 0-4 0-5 0-4-2-4-2-4-3-3-3-2-4-1-4-1-5 0-5 1-4 2-4 2-4 4-3 3-3 4-2 5-1 4 0 4 0 0 0 0 0 4 0 0 0 1 0 4 1 0 0 0 0 4 0 0 0 0 0 5 0 0 0 0 0 4 0 0 0 0 0 4 1 1 0 0 0 4 0 0 0 0 0 4 1 0 0 0 0 5 0 0 0 0 0 4 1 0 0 0 0 4 1 0 0 1 0 4 0 0 0 0 0 4 1 0 0 0 0 4 1 0 0 1 0 4 1 0 0 0 0 4 1 0 0 0 0 4 1 0 0 0 0 4 1 1 0 0 0 4 1 0 0 0 0 4 1 0 0 0 0 4 1 0 0 0 0 4 2 0 0 1 0 3 1 1 0 0 0 4 1 0 0 0 0 4 2 0 0 0 0 4 1 0 0 0 0 4 2 0 0 0 0 4 1 0 0 0 0 4 2 0 0 0 0 4 1 0 0 1 1 3 1 0 0 1 0 3 2 0 0 1 0 3 2 0 0 1 0 3 2 0 0 1 0 3 1 0 0 0 1 4 1 0 0 0 0 4 2 0 0 0 0 4 2 0 0 0 1 4 1 0 1 0 0 4 2 0 0 0 0 2 1 3 2 4 4 2 3 2 5 1 4 0 5-1 4-1 4-3 4-3 4-3 3-4 2-5 1-4 0z m-440-39l-4-1-5-1-4-3-3-3-3-3-2-4-1-5-1-4 0-5 1-4 2-4 3-4 3-2 1-1 0 0 0 0 4-4 0 0 0 0 4-3 0 0 1 0 4-4 0 0 0 0 4-3 0 0 0 0 5-3 0 0 0 0 4-3 0-1 0 0 5-3 0 0 0 0 4-3 0 0 1 0 4-3 0 0 0 0 5-3 0 0 0 0 4-3 0 0 1 0 4-3 0 0 0 0 5-2 0 0 0-1 5-2 0 0 0 0 4-3 1 0 0 0 4-2 0 0 0-1 5-2 0 0 0 0 5-3 0 0 0 0 5-2 0 0 0 0 5-2 0 0 0 0 5-3 0 0 0 0 5-2 0 0 0 0 5-2 0 0 0 0 5-2 0 0 0 0 5-2 0 0 0 0 5-2 0 0 1 0 4-2 1 0 0 0 5-2 0 0 0 0 5-2 0 0 0 0 5-2 0 0 0 0 5-2 0 0 1 0 5-1 0 0 0 0 5-2 0 0 0 0 5-1 0 0 0 0 5-2 1 0 0 0 5-1 0 0 0 0 5-1 0 0 0 0 6-2 0 0 0 0 4-1 5 0 4 0 5 1 4 2 4 3 3 3 2 4 2 4 1 5 0 4-1 5-1 4-3 4-3 3-4 3-4 2-3 1-5 1-4 1-5 1-5 1-5 2-4 1-5 2-5 1-4 2-5 1-5 2-4 1-5 2-5 2-4 2-5 2-4 2-5 2-4 2-5 2-4 2-4 2-5 3-4 2-4 2-5 3-4 2-4 3-4 3-4 2-4 3-5 3-4 2-4 3-4 3-4 3-3 3-4 3-4 3-1 1-4 3-4 1-4 1-5 1z m543-3l-5 0-4-1-5-2-3-2-1-2-4-3-4-3-4-3-4-3-4-3-4-2-4-3-5-3-4-2-4-3-4-3-4-2-5-3-4-2-4-2-5-3-4-2-4-2-5-2-4-2-5-2-4-2-5-2-4-2-5-2-4-2-5-1-5-2-4-1-5-2-5-1-5-2-4-1-5-2-5-1-5-1-4-1-5-1-3-1-5-1-4-2-3-3-3-3-2-4-2-5-1-4 0-5 1-4 2-4 3-4 3-3 4-3 4-2 4-1 5 0 4 0 3 1 0 0 0 0 5 1 0 0 1 0 5 2 0 0 0 0 5 1 0 0 0 0 5 1 0 0 1 0 5 2 0 0 0 0 5 1 0 0 0 0 5 2 0 0 1 0 5 1 0 0 0 0 5 2 0 0 0 0 5 2 0 0 0 0 5 2 0 0 0 0 5 2 1 0 0 0 5 2 0 0 0 0 5 2 0 0 0 0 5 2 0 0 0 0 5 2 0 0 0 0 5 2 0 0 0 0 5 2 0 0 0 0 5 3 0 0 0 0 5 2 0 0 0 0 5 2 0 0 0 0 5 3 0 0 0 0 5 2 0 1 0 0 4 2 1 0 0 0 4 3 0 0 1 0 4 2 0 1 0 0 5 2 0 0 0 0 5 3 0 0 0 0 4 3 0 0 0 0 5 3 0 0 0 0 5 3 0 0 0 0 4 3 0 0 0 0 5 3 0 0 0 1 4 3 0 0 0 0 5 3 0 0 0 0 4 3 0 0 0 0 4 4 1 0 0 0 4 3 0 0 0 0 2 2 3 3 3 4 2 4 1 4 0 5-1 4-1 5-2 4-3 3-4 3-4 2-4 2-4 0z" horiz-adv-x="1000" />

<glyph glyph-name="start-event-compensation" unicode="&#xe807;" d="M500 802c-178 2-349-112-416-276-70-161-34-362 89-487 119-128 314-175 477-115 169 58 294 224 301 403 12 176-92 351-250 428-62 31-132 47-201 47z m0-49c175 3 342-123 388-293 47-159-17-344-155-439-143-105-354-97-489 18-136 109-185 309-115 468 60 147 212 248 371 246z m-16-255c-70-49-140-99-209-148 70-49 139-99 209-148 0 48 0 95 0 143 67-48 135-95 202-143 0 99 0 197 0 296-67-48-135-95-202-143 0 48 0 95 0 143z m-24-47c0-67 0-134 0-201-48 33-95 67-143 100 48 34 95 67 143 101z m202 0c0-67 0-134 0-202-48 34-95 68-143 101 48 34 95 67 143 101z" horiz-adv-x="1000" />

<glyph glyph-name="start-event-non-interrupting-parallel-multiple" unicode="&#xe808;" d="M430 545l0-125-125 0 0-140 125 0 0-125 140 0 0 125 125 0 0 140-125 0 0 125z m23-23l94 0 0-125 125 0 0-94-125 0 0-125-94 0 0 126-125 0 0 93 125 0z m51 278l-7 0 0 0 0 0-6 0 0 0 0 0-7 0 0 0 0 0-6-1 0 0-1 0-6 0 0 0 0 0-6 0-1 0 0 0-6-1 0 0 0 0-6-1-1 0 0 0-6 0 0 0 0 0-6-1-1 0 0 0-6-1 0 0 0 0-6-1-1 0 0 0-6-1 0 0 0 0-6-1-1 0 0 0-6-1 0-1 0 0-6-1 0 0-1 0-6-1 0 0 0 0-6-2 0 0 0 0-4-1-4-1-4-2-3-3-3-4-2-4-2-4 0-5 0-4 1-5 2-4 3-4 3-3 4-2 5-2 4-1 5 0 3 1 3 1 6 1 6 1 6 2 5 1 6 1 6 1 6 1 6 0 6 1 5 1 6 0 6 1 6 0 6 1 6 0 6 0 6 0 6 0 6 0 5 0 6 0 6-1 6 0 6-1 6 0 6-1 5 0 6-1 6-1 6-1 6-1 5-1 2 0 4-1 5 0 4 2 4 2 4 2 3 4 3 3 1 5 1 4 0 5-1 4-1 4-3 4-3 4-3 2-5 2-3 1-2 1 0 0 0 0-6 1 0 0-1 0-6 1 0 0 0 0-6 1 0 0-1 0-6 1 0 0 0 0-6 1 0 0 0 0-7 1 0 0 0 0-6 0 0 1-1 0-6 0 0 0 0 0-6 1 0 0-1 0-6 0 0 0 0 0-6 0-1 0 0 0-6 1 0 0 0 0-6 0-1 0 0 0-6 0 0 0z m246-79l-5-1-4-1-4-3-3-3-3-4-1-4-2-4 0-5 1-4 1-5 2-4 3-3 3-3 2-1 0 0 2-2 0 0 3-1 0 0 2-2 0 0 2-2 2-2 0 0 3-2 0 0 2-1 2-2 0 0 2-2 3-2 0 0 2-2 2-2 0 0 2-2 2-2 1 0 2-2 2-2 2-2 0 0 2-2 0 0 2-2 0 0 2-2 2-2 0 0 2-3 0 0 2-2 2-2 0 0 2-2 2-2 0 0 2-3 0 0 2-2 2-2 2-2 0 0 2-3 2-2 2-2 0-1 1-2 0 0 2-2 0 0 2-3 0 0 1 0 2-4 3-3 2-4 3-3 2-3 3-4 2-3 2-4 0 0 3-3 2-4 2-4 3-3 2-4 2-3 2-4 2-4 2-3 2-4 2-4 1-2 3-4 3-4 3-2 4-2 5-2 4 0 5 1 4 1 4 2 4 3 3 3 2 4 2 4 0 5 0 5-1 4-1 3-2 3 0 0 0 0-2 4 0 0 0 1-2 4 0 0 0 0-2 4 0 0 0 0-2 4-1 0 0 0-2 4 0 0 0 0-2 4 0 0 0 0-3 4 0 0 0 0-2 4 0 0 0 0-3 4 0 0 0 0-2 4 0 0 0 0-3 4 0 0 0 0-2 4 0 0-1 0-2 4 0 0 0 0-3 4 0 0 0 0-3 4 0 0 0 0-2 3 0 1-1 0-2 3 0 0 0 0-3 4 0 0 0 0-3 3-2 3 0 0 0 0-2 3 0 0 0 0-2 2 0 0 0 0-2 3 0 0 0 0-2 3 0 0 0 0-2 2 0 0 0 0-2 3 0 0 0 0-3 3 0 0 0 0-2 2 0 0 0 0-2 3 0 0 0 0-2 2 0 0 0 0-3 3 0 0 0 0-2 2 0 0 0 0-2 3 0 0 0 0-2 2-1 0 0 0-2 3 0 0 0 0-2 2 0 0 0 0-3 3 0 0 0 0-2 2 0 0 0 0-2 2 0 0-1 0-2 3 0 0 0 0-2 2 0 0 0 0-3 2 0 0 0 0-2 2 0 0 0 0-3 3 0 0 0 0-2 2 0 0 0 0-3 2 0 0 0 0-2 2 0 0 0 0-3 2 0 0 0 0-2 2-1 0 0 1-2 1 0 1 0 0-3 2 0 0 0 0-2 2 0 0 0 0-3 2 0 0 0 0-3 2 0 0 0 0-2 2 0 0 0 0-2 1-4 2-4 2-5 0z m-521-12l-5-1-4-2-3-2 0 0 0 0-1 0-2-2 0 0 0 0-3-2 0 0 0 0-2-2 0 0 0 0-3-2 0 0 0 0-2-2 0 0 0-1-3-2 0 0 0 0-2-2 0 0 0 0-3-2 0 0 0 0-2-2 0 0 0 0-3-2 0-1 0 0-2-2 0 0 0 0-2-2 0 0-1 0-2-2 0 0 0-1-2-2 0 0 0 0-3-2 0 0 0 0-2-3 0 0 0 0-2-2 0 0 0 0-2-2-1 0 0-1-2-2 0 0 0 0-2-2 0 0 0-1-2-2 0 0 0 0-2-2-1 0 0-1-2-2 0 0 0 0-2-3 0 0 0 0-2-2 0 0 0 0-2-3 0 0 0 0-2-2 0 0 0-1-2-2-1 0 0 0-2-3 0 0 0 0-2-2 0 0 0-1-2-2 0 0 0 0-2-3 0 0 0 0-2-3 0 0 0 0-2-2 0-1 0 0-2-2 0 0 0 0-2-3 0 0 0 0-2-3 0 0 0 0-1-3 0 0-1 0-1-3 0 0 0 0-2-2-1-2 0 0 0 0-2-3 0 0 0 0-2-2 0-1 0 0-2-2 0 0 0 0-2-3 0 0 0 0-2-3 0 0 0 0-2-3 0 0 0 0-2-3 0 0 0 0-2-3 0 0 0 0-1-3 0 0 0 0-2-2 0-1 0 0-2-2 0 0 0-1-2-2 0 0 0 0-1-3 0 0 0 0-2-3 0 0 0 0-2-3 0 0 0 0-1-3 0 0 0 0-2-3 0 0 0 0-1-3 0 0 0 0-2-3 0 0 0 0-1-3 0 0 0 0-2-3 0 0 0 0-1-3 0 0 0 0-2-3 0 0 0 0 0-1-2-4 0-5 0-4 1-5 2-4 2-4 4-3 3-3 5-1 4-1 5-1 4 1 4 2 4 2 4 3 3 3 1 4 1 0 1 3 1 3 0 0 1 2 0 0 2 3 1 3 0 0 2 2 0 0 1 3 1 2 0 1 2 2 1 3 0 0 2 2 0 0 1 3 2 2 0 0 1 3 2 2 1 3 0 0 2 3 0 0 2 2 0 0 1 2 2 3 2 2 0 0 1 3 2 2 2 3 1 1 0 0 2 3 1 2 0 0 2 3 2 2 0 0 1 3 2 2 0 0 2 3 0 0 2 2 1 3 2 2 0 0 2 2 2 3 2 2 0 0 2 2 1 3 2 2 0 0 2 2 2 2 0 0 2 3 0 0 2 2 0 0 2 2 0 0 2 2 2 2 0 0 2 2 0 0 2 3 0 0 2 2 2 2 0 0 2 2 3 2 0 0 2 2 2 2 0 0 2 2 0 0 2 2 0 0 2 2 0 0 3 1 0 0 2 2 0 0 2 2 0 0 2 2 3 2 0 0 2 2 0 0 0 0 3 3 3 4 2 4 1 4 0 5 0 4-2 5-2 4-3 3-3 3-4 2-4 2-5 1z m694-313l-4-1-5-2-3-2-3-4-3-4-2-4-1-4 0-4 1-4 0-4 0-4 0-5 0-4 0 0 0-1 0-3 0-3 0 0 0-3 0 0 0-3 0-3 0 0 0-3 0 0 0-3 0-3 0-3 0-3 0-3-1-3 0-3 0 0 0-3 0 0 0-3-1-3 0-3 0-3-1-2 0-1 0-3 0 0 0-2-1-3 0-3 0 0-1-3 0-3-1-3 0 0 0-3-1-3-1-3 0 0 0-2-1-3 0 0 0-3-1-3 0 0-1-3-1-3 0 0 0-2 0 0-1-3 0 0-1-3 0 0-1-3 0 0-1-3-1-2 0 0 0-3-1-3 0 0-1-3 0 0-1-2 0-1-1-2 0 0-1-3 0 0-1-3-1-2 0 0-1-3-3-5-2-6-2-5-3-5-2-6-3-5-3-5-1-3-2-4-1-4 0-5 1-4 1-5 3-4 3-3 3-3 4-2 5-1 4-1 5 1 4 1 4 2 4 3 3 3 2 3 1 3 1 0 0 0 3 6 0 0 0 0 2 6 1 0 0 0 2 6 0 0 0 0 3 5 0 1 0 0 3 5 0 1 0 0 2 6 0 0 1 0 2 6 0 0 0 0 1 3 0 0 0 0 1 3 0 0 0 0 1 3 0 0 1 0 1 3 0 0 0 0 1 3 0 0 0 0 1 3 0 0 0 0 1 3 0 0 0 1 1 3 0 0 0 0 1 3 0 0 0 0 1 3 0 0 0 0 1 3 0 0 0 0 1 3 0 0 0 0 1 3 0 0 0 1 1 3 0 0 0 0 1 3 0 0 0 0 0 3 0 0 0 0 1 3 0 0 0 0 1 3 0 1 0 0 1 3 0 0 0 0 0 3 0 0 1 0 0 3 0 0 0 0 1 3 0 1 0 0 1 3 0 0 0 0 0 3 0 0 0 0 1 3 0 0 0 0 0 4 0 0 0 0 1 3 0 0 0 0 0 3 0 0 0 0 1 4 0 0 0 0 0 3 0 0 0 0 1 3 0 0 0 0 0 4 0 0 0 0 1 3 0 0 0 0 0 3 0 0 0 0 0 4 0 0 0 0 1 3 0 0 0 0 0 3 0 0 0 1 0 3 0 0 0 0 0 3 0 0 0 0 0 4 0 0 0 0 1 3 0 0 0 0 0 3 0 0 0 1 0 3 0 0 0 0 0 3 0 0 0 0 0 4 0 0 0 0 0 3 0 0 0 0 0 4 0 0 0 0 0 3 0 0 0 0 0 3 0 1 0 0 0 3 0 4 0 0 0 0 0 4 0 0 0 1 0 4 0 0 0 0-1 5 0 0 0 0 0 4 0 5-2 4-2 4-3 4-4 2-4 3-4 1-4 1z m-853-18l-4-1-5-2-3-3-4-3-2-4-2-4-1-4 0-4 0-3 0 0 0 0 0-7 0 0 0 0 0-6 0 0 0 0 0-7 0 0 0 0 1-6 0 0 0-1 0-6 0 0 0 0 1-6 0 0 0-1 1-6 0 0 0 0 1-6 0 0 0-1 0-6 0 0 0 0 1-6 0 0 0-1 1-6 1 0 0 0 1-6 0 0 0-1 1-6 0 0 0 0 1-6 0 0 0 0 2-6 0-1 0 0 1-6 0 0 0 0 2-6 0 0 0-1 2-6 0 0 0 0 1-6 0 0 0 0 2-6 0 0 0 0 2-6 0-1 0 0 2-6 0 0 0 0 2-6 0 0 0 0 2-6 1 0 0 0 2-6 0 0 0 0 2-6 0 0 0-1 3-5 0-1 0 0 2-5 0-1 0 0 3-5 0-1 0 0 2-5 0-1 1 0 2-5 0-1 0 0 3-5 0 0 0-1 1-1 2-4 4-4 3-2 4-2 5-1 4-1 5 1 4 1 4 2 4 3 3 3 2 4 2 5 0 4 0 5-1 4-1 4-1 1-3 5-2 6-3 5-2 6-2 5-2 5-3 6-2 6-2 5-1 6-2 5-2 6-2 6-1 5-2 6-1 6-2 5-1 6-1 6-1 6-1 6-1 5-1 6-1 6-1 6 0 6-1 5 0 6-1 6 0 6 0 6-1 6 0 3 0 4-1 5-3 4-2 3-4 3-4 3-4 1-4 1z m694-334l-4-1-4-2-4-3 0 0-5-3-4-4-5-4-5-3-5-3-4-4-5-3-5-3-5-3-5-4-5-3-6-3-5-2-5-3-5-3-5-3-6-2-5-3-5-2-6-2-5-3-6-2-5-2-6-2-5-2-6-2-5-2-6-1-5-2-6-2-6-1-5-1-5-1-4-2-4-2-4-3-2-3-3-4-1-5-1-4 1-5 1-4 2-4 2-4 3-3 4-3 4-1 5-1 4-1 4 1 5 1 0 0 0 0 6 2 0 0 0 0 6 1 1 0 0 0 6 2 0 0 0 0 6 2 0 0 0 0 6 2 0 0 1 0 5 2 1 0 0 0 6 2 0 0 0 0 6 2 0 0 0 0 6 2 0 0 0 0 6 3 0 0 0 0 6 2 0 0 1 0 5 3 0 0 1 0 5 2 0 0 1 0 5 3 0 0 1 0 5 3 0 0 1 0 5 3 0 0 0 0 6 3 0 0 0 0 6 3 0 0 0 0 6 3 0 0 0 0 5 3 0 0 1 0 5 3 0 0 0 0 6 3 0 1 0 0 5 3 0 0 1 0 5 3 0 0 0 1 5 3 0 0 1 0 5 4 0 0 0 0 5 3 0 0 0 0 6 4 0 0 0 0 5 4 0 0 0 0 5 4 0 0 0 0 5 4 0 0 1 0 4 4 1 0 0 0 0 1 3 3 3 4 2 4 1 4 0 5 0 4-2 4-2 4-3 4-4 3-4 2-4 1-4 1z m-541-2l-4-1-4-3-4-2-3-4-2-4-1-4-1-5 0-4 1-5 2-4 3-4 3-2 1-1 0-1 0 0 5-4 0 0 0 0 5-4 0 0 0 0 3-2 0 0 0 0 2-2 1 0 0 0 2-2 0 0 0 0 3-2 0 0 0 0 2-2 1 0 0 0 2-2 0 0 0 0 3-2 0 0 0 0 3-1 0-1 0 0 2-1 0 0 0 0 3-2 0 0 0 0 3-2 0 0 0 0 3-2 0 0 0 0 2-2 0 0 1 0 2-1 0 0 0 0 3-2 0 0 0 0 3-2 0 0 0 0 3-1 0 0 0-1 3-1 0 0 0 0 3-2 0 0 0 0 2-1 1 0 0 0 2-2 1 0 0 0 2-2 0 0 1 0 2-1 0 0 1 0 2-2 0 0 0 0 3-1 0 0 0 0 3-2 0 0 1 0 2-1 0 0 1 0 2-1 0-1 1 0 2-1 1 0 0 0 3-1 0 0 0 0 3-2 0 0 0 0 3-1 0 0 0 0 3-1 0 0 0 0 3-2 0 0 0 0 3-1 0 0 0 0 3-1 0 0 0 0 3-1 1 0 0 0 3-1 0 0 0 0 3-2 0 0 0 0 3-1 0 0 0 0 3-1 0 0 1 0 3-1 0 0 0 0 3-1 0 0 0 0 3-1 0 0 0 0 3-1 0 0 1 0 3-1 0 0 0 0 3-1 0 0 0 0 3-1 2 0 0 0 0 0 3-1 0 0 0-1 3-1 1 0 0 0 3-1 0 0 0 0 3-1 0 0 0 0 3-1 0 0 0 0 4 0 0-1 0 0 3 0 0 0 0 0 3-1 0 0 0 0 3-1 1 0 0 0 3-1 0 0 0 0 3-1 0 0 0 0 0 0 5 0 4 0 5 1 4 2 4 2 3 4 2 3 2 5 1 4 0 5 0 4-2 4-2 4-3 4-4 2-4 3-3 1 0 0-1 0-3 0-2 1 0 0-3 1 0 0-3 1 0 0-3 0 0 0-3 1-3 1-3 1 0 0-3 1-2 1-3 1-3 1-1 0-1 0-3 1-3 1-3 1 0 0-2 1-3 1-3 1-3 0-3 1 0 0-3 1-3 1-2 1 0 0-3 2-3 1 0 0-3 1 0 0-2 1-3 1 0 0-3 1-3 1-2 2-3 1 0 0-3 1-2 1-3 2-3 1-2 1 0 0-3 2-2 1 0 0-3 1 0 0-3 2 0 0-2 1-2 2-1 0-2 1 0 0-3 2-2 1 0 0-3 2-2 1 0 0-3 2 0 0-2 2 0 0-2 1-3 2 0 0-2 2-2 1-1 0-2 2 0 0-2 2-3 1 0 0-2 2 0 0-2 2 0 0-3 2-4 3-5 4-1 1-4 3-4 1-4 2-5 0z" horiz-adv-x="1000" />

<glyph glyph-name="loop-marker" unicode="&#xe809;" d="M529 645c-126 1-247-86-283-207-28-87-12-187 42-260-44 8-89 17-134 26-4-20-8-40-12-59 81-16 162-32 242-47 16 80 32 160 47 240-19 4-39 8-59 11-9-48-19-97-28-145-69 82-68 214 2 295 69 86 200 111 295 57 92-47 143-159 118-259-22-104-124-184-230-182-28 2-42-38-19-53 20-13 45-4 67-3 124 19 229 125 245 250 19 119-46 244-152 300-43 23-92 36-141 36z" horiz-adv-x="1000" />

<glyph glyph-name="parallel-mi-marker" unicode="&#xe80a;" d="M250 650l0-600 100 0 0 600-100 0z m200 0l0-600 100 0 0 600-100 0z m200 0l0-600 100 0 0 600-100 0z" horiz-adv-x="1000" />

<glyph glyph-name="start-event-non-interrupting-signal" unicode="&#xe80b;" d="M500 562c-64-115-128-230-192-345 128 0 256 0 384 0-64 115-128 230-192 345z m0-51c50-90 100-180 151-270-101 0-201 0-302 0 51 90 101 180 151 270z m4 289c-45-7-119 8-139-39 18-48 78-2 116-10 40 3 80-6 119-8 49 46-38 58-72 56-8 1-16 1-24 1z m250-79c-62-19 12-63 34-87 30-33 55-70 76-109 42-29 52 35 23 57-33 54-74 105-127 138l-6 1 0 0z m-521-11c-51-21-82-73-113-115-22-23-63-104 0-91 32 41 53 93 92 130 19 20 77 57 21 76z m695-313c-47-13-14-76-28-111-7-43-22-86-43-125-6-47 57-33 57 6 31 66 44 141 36 213-3 10-13 16-22 17z m-853-19c-48-11-18-76-18-110 11-46 23-94 51-133 67-9 16 67 8 99-12 40-19 82-19 124-2 11-12 19-22 20z m694-334c-50-24-94-64-149-78-33 0-87-36-38-60 75 13 146 49 204 98 14 14 2 40-17 40z m-542-1c-56-22 12-68 41-83 45-25 95-46 147-53 50 23-6 59-38 59-50 15-97 39-136 73l-6 3-8 1 0 0z" horiz-adv-x="1000" />

<glyph glyph-name="intermediate-event-catch-non-interrupting-timer" unicode="&#xe80c;" d="M500 564c-85 2-167-54-198-133-33-76-15-170 43-229 56-60 149-82 226-54 81 28 141 108 143 194 5 83-46 166-121 201-29 14-61 21-93 21z m0-39c78 2 152-55 170-131 20-73-14-156-79-194-67-42-160-31-215 26-58 56-68 152-24 219 32 49 89 81 148 80z m55-49c-19-36-39-71-58-107-18-2-23-29-6-36 11-8 20 5 30 4 30 0 59 0 89 0 0 8 0 17 0 25-30 0-60 0-89 0 18 34 37 68 56 102-7 4-14 8-22 12z m-55 233l-4 0 0 0-1 0-4 0 0 0 0 0-4 0 0 0 0 0-5 0 0-1 0 0-4 0 0 0 0 0-4 0-1 0 0 0-4 0 0 0 0 0-4-1 0 0-1 0-1 0-4-1-5-2-3-2-4-3-2-4-2-4-2-4 0-5 1-4 1-5 2-4 3-3 4-3 4-3 4-1 4-1 4 0 1 1 4 0 4 0 4 1 4 0 3 0 4 0 4 0 4 0 4 0 4 0 4 0 3 0 4 0 4-1 4 0 4 0 3-1 4 0 4-1 4 0 4-1 3-1 4 0 4-1 4-1 3 0 4-1 4-1 3-1 4-1 4-1 3-1 4-1 3-2 4-1 4-1 3-1 4-2 3-1 4-1 3-2 0 0 0 0 4-1 5-1 5 0 4 1 4 2 4 3 3 3 2 4 2 4 1 5 0 4 0 5-2 4-2 4-3 3-4 3-3 2 0 0-1 0 0 0-3 2-1 0 0 0-4 1 0 0 0 0-4 2 0 0 0 0-4 1 0 0 0 0-4 2 0 0 0 0-4 1 0 0 0 0-4 2 0 0 0 0-4 1 0 0-1 0-3 1-1 0 0 0-4 2 0 0 0 0-4 1 0 0 0 0-4 1 0 0 0 0-4 1 0 0-1 0-4 1 0 0 0 0-4 1 0 0 0 0-4 1 0 0 0 0-4 1-1 0 0 0-4 1 0 0 0 0-4 1 0 0 0 0-4 0-1 0 0 0-4 1 0 0 0 0-4 1 0 0 0 0-5 0 0 0 0 0-4 1 0 0 0 0-4 0 0 0-1 0-4 1 0 0 0 0-4 0 0 0 0 0-5 0 0 0 0 0-4 0 0 0 0 1-4 0-1 0 0 0-4 0 0 0 0 0-4 0 0 0-1 0-4 0 0 0z m-159-39l-5-1-3-1-2-1 0 0 0 0-4-2 0 0 0 0-3-2-1-1 0 0-3-2 0 0-1 0-3-2 0 0 0 0-4-2 0 0 0 0-4-2 0-1 0 0-3-2 0 0-1 0-3-2 0 0 0 0-4-3 0 0 0 0-3-2 0 0 0 0-4-3 0 0 0 0-3-2 0 0-1-1-3-2 0 0 0 0-3-3 0 0-1 0-3-2 0-1 0 0-3-2 0 0-1 0-3-3 0 0 0 0-3-3 0 0 0 0-3-3-1 0 0 0-3-3 0 0 0 0-3-3 0 0 0 0-3-3 0 0 0 0-3-3-1 0 0 0-3-3 0 0 0 0-3-3 0 0 0 0-3-3 0-1 0 0-3-3 0 0 0 0-3-3 0 0 0 0-3-3 0 0 0 0-3-4 0 0 0 0-3-3 0 0 0 0-2-3-1 0 0-1-2-3 0 0 0 0-3-3 0 0 0-1-3-3 0 0 0 0-2-3 0 0-1-1-2-3 0 0 0 0-2-3-1-1 0 0-2-3 0 0 0 0-2-4-1 0 0 0-2-3-2-4-1-4-1-5 1-4 1-5 2-4 3-3 3-4 4-2 4-2 4-1 5 0 4 1 5 2 4 2 3 3 2 3 2 3 2 3 2 3 3 3 2 4 2 3 2 3 3 3 2 3 3 2 2 3 3 3 2 3 3 3 2 3 3 3 3 2 3 3 2 3 3 2 3 3 3 2 3 3 3 2 3 3 3 2 3 3 3 2 3 2 3 3 3 2 3 2 3 2 3 2 3 2 4 2 3 2 3 2 3 2 4 2 3 2 2 0 3 3 4 3 2 4 2 4 1 4 1 5-1 4-1 5-3 4-2 3-4 3-4 2-4 2-5 0z m392-60l-4-1-4-1-4-3-3-3-3-4-1-4-1-5-1-4 1-5 2-4 2-4 2-3 3-2 3-3 2-3 3-3 2-3 3-3 2-3 3-2 2-3 3-3 2-3 2-3 3-4 2-3 2-3 2-3 2-3 2-3 2-4 2-3 2-3 2-3 2-4 2-3 1-3 2-4 2-3 1-3 2-4 2-3 1-4 1-3 2-4 1-3 2-4 1-3 1-4 1-4 2-3 1-4 1-3 0-3 2-4 2-4 4-3 3-3 4-2 5-1 4 0 5 0 4 1 4 3 4 2 3 4 2 4 2 4 0 5 0 4-1 4 0 2 0 0 0 0-2 4 0 0 0 1-1 3 0 1 0 0-1 4 0 0 0 0-2 4 0 0 0 0-1 4 0 0 0 0-2 4 0 0 0 0-1 4 0 0 0 0-2 4 0 0 0 0-1 4 0 0 0 1-2 3 0 0 0 1-2 3 0 0 0 1-2 3 0 0 0 1-1 3 0 0-1 1-1 3 0 0 0 0-2 4 0 0 0 0-2 4 0 0 0 0-2 4 0 0 0 0-2 4 0 0-1 0-1 4-1 0 0 0-2 3 0 1 0 0-2 3 0 0 0 0-2 4 0 0 0 0-2 4-1 0 0 0-2 3 0 0 0 1-2 3 0 0 0 0-3 4 0 0 0 0-2 3 0 0 0 1-3 3 0 0 0 0-2 3 0 1-1 0-2 3 0 0 0 0-3 3 0 1 0 0-2 3-1 0 0 0-2 3 0 1 0 0-3 3 0 0 0 0-3 3 0 0 0 0-3 4 0 0 0 0-3 3 0 0 0 0-3 3 0 0 0 0-3 3 0 0 0 1-3 3 0 0 0 0-3 2-3 3-4 3-5 1-4 1z m-564-170l-4-1-4-2-4-2-3-4-3-3-2-4-1-4-1-4 0 0 0 0 0-4 0 0-1 0 0-4 0-1 0 0-1-4 0 0 0 0-1-4 0 0 0 0 0-5 0 0 0 0-1-4 0 0 0 0 0-4 0 0 0-1 0-4 0 0-1 0 0-4 0 0 0 0 0-5 0 0 0 0 0-4 0 0 0 0-1-4 0-1 0 0 0-4 0 0 0 0 0-4 0 0 0-1 0-4 0 0 0 0 0-4 0 0 0-1 0-4 0 0 0 0 0-4 0 0 0 0 1-5 0 0 0 0 0-4 0 0 0 0 0-4 0-1 0 0 0-4 1 0 0 0 0-4 0 0 0-1 0-4 0 0 0 0 1-4 0 0 0 0 0-4 0-1 0 0 1-4 0 0 0 0 1-4 0 0 0 0 0-4 1-1 0 0 0-4 0 0 0 0 1-4 0 0 0 0 1-4 0-1 0 0 1-4 0 0 0 0 1-4 0 0 0 0 1-4 0 0 0-1 1-4 0 0 0 0 1-4 0 0 0 0 1-4 0 0 0 0 2-4 0 0 0 0 1-4 0-1 0 0 1-1 1-4 3-4 3-3 4-3 4-2 4-1 5 0 4 1 5 1 4 2 3 3 3 4 2 4 2 4 0 5 0 4-1 4 0 1-2 4-1 4-1 3-1 4-1 3-1 4 0 4-1 4-1 3-1 4 0 4-1 4-1 3 0 4-1 4 0 4 0 3-1 4 0 4 0 4-1 4 0 4 0 3 0 4 0 4 0 4 0 4 0 4 0 3 1 4 0 4 0 4 1 4 0 3 0 4 1 4 0 4 1 4 1 3 0 4 1 4 0 4 0 5-1 4-2 4-3 4-3 3-4 2-5 2-4 1z m658-119l-5-1-4-2-4-3-3-3-2-4-2-4-1-3 0 0 0 0 0 0 0 0-1-4 0-4-1-4-1-3 0-4-1-4-1-4-1-3-1-4-1-3-1-4-1-4-2-3-1-4-1-3-1-4-2-4-1-3-2-4-1-3-1-4-2-3-2-3-1-4-2-3-2-4-1-3-2-3-2-4-2-3-2-3-2-3-2-4-2-3-2-3-2-3-2-3-2-3-3-3-2-3-2-4-2-1-2-4-2-4-1-5 0-4 1-5 2-4 2-4 3-3 4-3 4-2 4-1 5-1 4 1 4 1 5 2 3 3 3 3 1 1 0 1 0 0 3 3 0 0 0 0 2 3 1 1 0 0 2 3 0 0 0 0 3 4 0 0 0 0 2 3 0 0 0 0 3 4 0 0 0 0 2 3 0 1 0 0 2 3 0 0 1 0 2 4 0 0 0 0 2 4 0 0 0 0 2 3 0 1 0 0 2 3 0 0 1 1 2 3 0 0 0 0 2 4 0 0 0 0 2 4 0 0 0 0 2 4 0 0 0 0 2 4 0 0 0 0 1 4 1 0 0 0 1 4 0 0 0 0 2 4 0 0 0 0 2 4 0 0 0 0 2 4 0 0 0 0 1 4 0 0 0 0 2 4 0 0 0 0 1 4 0 0 0 0 2 4 0 0 0 0 1 4 0 0 0 0 2 4 0 0 0 0 1 4 0 0 0 1 1 4 0 0 0 0 2 4 0 0 0 0 1 4 0 0 0 0 1 4 0 0 0 0 1 4 0 1 0 0 1 4 0 0 0 0 1 4 0 0 0 0 1 4 0 0 0 1 1 4 0 0 0 0 1 4 0 0 0 0 1 4 0 0 0 1 0 4 0 0 0 0 0 0 1 5-1 4-1 4-2 4-3 4-4 3-4 2-4 2-5 0z m-590-161l-4-2-4-2-4-3-3-3-2-4-1-5-1-4 1-5 1-4 2-4 2-3 1-2 0 0 0 0 3-3 0 0 0 0 3-3 0-1 0 0 3-3 0 0 0 0 3-3 0 0 0 0 3-3 0 0 0 0 3-3 0-1 0 0 3-3 0 0 0 0 3-3 0 0 1 0 3-3 0 0 0 0 3-3 0 0 0 0 3-3 0 0 0 0 3-3 0 0 1 0 3-3 0 0 0 0 3-3 0 0 0 0 3-2 1-1 0 0 3-2 0 0 0 0 3-3 1 0 0 0 3-3 0 0 0 0 3-2 1 0 0-1 3-2 0 0 0 0 4-2 0-1 0 0 3-2 0 0 0 0 4-2 0-1 0 0 3-2 1 0 0 0 3-2 0 0 0 0 4-3 0 0 0 0 4-2 0 0 0 0 3-2 1 0 0 0 3-2 0 0 1 0 3-2 0 0 0-1 4-1 0-1 0 0 4-2 0 0 0 0 4-2 0 0 0 0 4-1 0-1 0 0 4-1 0 0 0 0 4-2 0 0 0 0 4-2 0 0 0 0 4-2 0 0 0 0 4-1 0-1 0 0 4-1 0 0 0 0 4-2 4-1 4 0 5 0 4 1 4 2 4 3 3 4 2 3 2 5 1 4 0 5-1 4-2 4-2 4-4 3-3 3-4 2-3 1-4 2-3 1-4 2-3 1-3 2-4 1-3 2-4 2-3 2-3 1-4 2-3 2-3 2-3 2-4 2-3 2-3 2-3 2-3 2-3 3-3 2-4 2-3 2-2 3-3 2-3 3-3 2-3 3-3 2-3 3-3 2-2 3-3 3-3 3-3 2-2 3-3 3-2 3-3 3-2 3-1 1-4 3-3 3-5 1-4 1-5 1z m425-76l-4-1-4-2-1-1-4-2-3-1-3-2-4-2-3-2-3-1-4-2-3-1-4-2-3-1-4-2-3-1-4-2-3-1-4-1-4-1-3-1-4-2-3-1-4-1-4-1-3-1-4-1-4 0-3-1-4-1-4-1-4 0-3-1-4-1-4 0-4-1-3 0-4 0-4-1-4 0-4 0-4-1-3 0-4 0-4 0-5 0-4-2-4-2-4-3-3-3-2-4-1-4-1-5 0-5 1-4 2-4 2-4 4-3 3-3 4-2 5-1 4 0 4 0 0 0 0 0 4 0 0 0 1 0 4 0 0 1 0 0 4 0 0 0 0 0 5 0 0 0 0 0 4 0 0 0 0 0 4 1 1 0 0 0 4 0 0 0 0 0 4 1 0 0 0 0 5 0 0 0 0 0 4 1 0 0 0 0 4 1 0 0 1 0 4 0 0 0 0 0 4 1 0 0 0 0 4 1 0 0 1 0 4 1 0 0 0 0 4 1 0 0 0 0 4 1 0 0 0 0 4 1 1 0 0 0 4 1 0 0 0 0 4 1 0 0 0 0 4 1 0 0 0 0 4 2 0 0 1 0 3 1 1 0 0 0 4 1 0 0 0 0 4 2 0 0 0 0 4 1 0 0 0 0 4 2 0 0 0 0 4 1 0 0 0 0 4 2 0 0 0 0 4 1 0 0 1 1 3 1 0 0 1 0 3 2 0 0 1 0 3 2 0 0 1 0 3 2 0 0 1 0 3 1 0 0 0 1 4 1 0 0 0 0 4 2 0 0 0 0 4 2 0 0 0 1 4 1 0 1 0 0 4 2 0 0 0 0 2 1 3 2 4 4 2 3 2 5 1 4 0 5-1 4-1 4-3 4-3 4-3 3-4 2-5 1-4 0z m-162 718l-5 0-1 0 0 0-5 0 0 0 0 0-6-1 0 0 0 0-5 0 0 0 0 0-6 0 0 0 0 0-5-1 0 0-1 0-5 0 0 0 0 0-5 0-1 0 0-1-5 0 0 0 0 0-5-1-1 0 0 0-5 0 0 0 0 0-5-1-1 0 0 0-5-1 0 0 0 0-5-1-1 0 0 0-5-1 0 0 0 0-5-1 0 0-1 0-5-1 0 0 0 0-5-1 0 0 0 0-6-2 0 0 0 0-5-1 0 0 0 0-5-1-4-2-4-2-4-3-2-4-3-4-1-4 0-5 0-4 1-4 2-5 3-3 3-3 4-3 4-1 5-1 4 0 4 1 5 1 5 1 4 1 5 1 5 1 5 1 5 1 5 1 5 0 4 1 5 1 5 0 5 1 5 0 5 1 5 0 5 0 5 1 5 0 5 0 5 0 5 0 5 0 5 0 5-1 5 0 5 0 5-1 5 0 5-1 5 0 5-1 5-1 4 0 5-1 5-1 5-1 5-1 4-1 5 0 4 0 5 1 4 2 3 3 4 3 2 4 2 4 1 4 0 5-1 4-2 5-2 4-3 3-4 3-4 2-3 1-5 1 0 0 0 0-5 1 0 0-1 0-5 1 0 0 0 0-5 1 0 0 0 0-6 1 0 0 0 0-5 1 0 0 0 0-6 1 0 0 0 0-5 0 0 0 0 0-6 1 0 0 0 0-5 0 0 1 0 0-6 0 0 0 0 0-5 0 0 0-1 0-5 1 0 0 0 0-5 0-1 0 0 0-5 0 0 0 0 0-6 1 0 0 0 0-5 0 0 0 0 0-6 0 0 0z m250-83l-4-1-5-2-3-2-4-4-2-3-2-4-1-5-1-4 1-5 1-4 3-4 3-4 2-2 2-1 4-3 4-3 4-3 3-3 4-4 4-3 4-3 3-3 4-4 4-3 3-4 4-3 3-4 4-3 3-4 4-4 3-3 3-4 3-4 4-4 3-3 3-4 3-4 3-4 3-4 3-4 2-4 3-4 3-5 3-4 2-4 3-4 2-4 3-5 2-4 2-4 3-5 2-4 1-2 2-4 4-3 3-3 4-2 5-1 4-1 5 1 4 1 4 2 4 3 3 3 2 4 2 4 0 5 0 4-1 5-1 3-1 3 0 0 0 0-3 5 0 0 0 0-2 5 0 0-1 0-2 4 0 1 0 0-3 4 0 0 0 1-2 4-1 0 0 0-2 5 0 0 0 0-3 5 0 0 0 0-3 4 0 0 0 0-3 5 0 0 0 0-3 5 0 0 0 0-3 4 0 0 0 0-3 5 0 0-1 0-3 4 0 0 0 0-3 5 0 0 0 0-3 4 0 0 0 0-4 4 0 1 0 0-3 4 0 0 0 0-3 4-1 0 0 0-3 4 0 1 0 0-4 4 0 0 0 0-3 4 0 0-1 0-3 4 0 0 0 0-4 4 0 0 0 0-4 4 0 0 0 1-4 3 0 0 0 1-3 3-1 0 0 1-3 3-1 0 0 0-3 4-1 0 0 0-4 4 0 0 0 0-4 4 0 0 0 0-4 3 0 1 0 0-4 3 0 0 0 0-4 4 0 0-1 0-4 3 0 0 0 1-4 3 0 0 0 0-4 3 0 0-1 0-4 4 0 0 0 0-4 3 0 0 0 0-2 1-4 3-4 1-4 1z m-519-10l-4-1-4-2-4-2-1-1 0 0 0 0-4-3 0-1 0 0-4-3 0 0-1 0-4-4 0 0 0 0-4-3 0 0 0-1-4-3 0 0 0 0-4-4 0 0 0 0-4-4 0 0 0 0-4-4 0 0 0 0-4-3 0-1 0 0-4-3 0-1 0 0-4-3 0-1 0 0-4-4 0 0 0 0-4-4 0 0 0 0-3-4 0 0-1 0-3-4 0 0 0 0-4-4 0 0 0-1-3-4 0 0 0 0-4-4 0 0 0 0-3-4 0 0 0-1-4-4 0 0 0 0-3-4 0 0 0 0-3-5 0 0 0 0-3-4 0 0-1 0-3-5 0 0 0 0-3-4 0 0 0 0-3-5 0 0 0 0-3-5 0 0 0 0-3-4 0 0 0 0-2-5-1 0 0 0-2-5 0 0 0 0-3-4 0-1 0 0-3-4 0 0 0-1-2-4 0 0 0 0-3-5 0 0 0 0-2-5 0 0-1 0-2-5 0 0 0 0-2-5 0 0 0 0-3-5 0 0 0 0-1-3-1-4-1-5 0-4 1-5 2-4 3-4 3-3 4-2 4-2 4-1 5 0 4 0 5 2 3 2 4 3 3 4 2 3 1 3 2 4 2 5 2 4 2 4 3 5 2 4 2 4 3 5 2 4 3 4 3 4 2 4 3 5 3 4 2 4 3 4 3 4 3 4 3 4 3 4 3 3 4 4 3 4 3 4 3 3 4 4 3 4 4 3 3 4 4 3 3 4 4 3 4 4 3 3 4 3 4 3 4 4 4 3 1 1 3 3 3 3 2 5 1 4 0 4-1 5-1 4-2 4-3 4-4 3-4 2-4 2-4 0z m692-315l-4-1-4-2-4-2-3-4-3-4-2-4 0-4-1-4 1-4 0-5 0-5 0-5 0-5 0-5 0-5-1-5 0-5 0-5-1-5 0-5-1-5 0-5-1-5-1-4 0-5-1-5-1-5-1-5-1-5-1-5-1-4-1-5-1-5-2-5-1-4-2-5-1-5-1-4-2-5-2-5-1-4-2-5-2-4-2-5-2-5-2-4-2-5-2-4-2-4-2-5-2-4-2-5-1-4 0-5 1-4 2-4 2-4 3-4 4-2 4-2 4-2 5 0 4 1 5 1 4 2 3 3 3 3 2 3 3 5 0 0 0 0 2 5 0 0 0 0 2 5 0 0 0 0 3 5 0 0 0 0 2 5 0 0 0 0 2 5 0 0 0 0 2 5 0 0 0 0 2 5 0 0 0 0 2 5 0 0 0 1 2 4 0 1 0 0 2 5 0 0 0 0 2 5 0 0 0 0 2 5 0 0 0 0 2 5 0 0 0 1 1 5 0 0 0 0 2 5 0 0 0 0 1 5 0 0 0 0 2 5 0 1 0 0 1 5 0 0 0 0 1 5 0 0 0 0 2 6 0 0 0 0 1 5 0 0 0 0 1 5 0 1 0 0 1 5 0 0 0 0 1 5 0 0 0 1 1 5 0 0 0 0 1 5 0 0 0 1 1 5 0 0 0 0 0 5 0 0 0 1 1 5 0 0 0 0 0 5 1 0 0 1 0 5 0 0 0 0 0 5 0 1 0 0 1 5 0 0 0 0 0 6 0 0 0 0 0 5 0 0 0 0 1 6 0 0 0 0 0 5 0 0 0 1 0 5 0 0 0 0 0 6 0 0 0 0 0 5 0 0 0 0-1 6 0 0 0 0 0 4 0 5-2 4-2 4-3 3-4 3-4 2-4 2-4 0z m-853-16l-4-1-4-1-4-3-4-3-2-4-2-4-1-4-1-4 0-4 0 0 0 0 0-5 0-1 0 0 1-5 0 0 0 0 0-6 0 0 0 0 0-5 0 0 0 0 0-6 0 0 0 0 1-5 0 0 0-1 0-5 0 0 0 0 1-5 0-1 0 0 0-5 0 0 0 0 1-5 0-1 0 0 1-5 0 0 0 0 0-5 0-1 0 0 1-5 0 0 0 0 1-5 0-1 0 0 1-5 0 0 0 0 1-5 0 0 0-1 1-5 0 0 0 0 1-5 0 0 0 0 2-6 0 0 0 0 1-5 0 0 0 0 1-5 0 0 0-1 2-5 0 0 0 0 1-5 0 0 0 0 2-5 0 0 0 0 2-5 0-1 0 0 1-5 0 0 0 0 2-5 0 0 0 0 2-5 0 0 0 0 2-5 0 0 0-1 2-4 0-1 0 0 2-5 0 0 0 0 2-5 0 0 0 0 2-5 0 0 0 0 2-5 0 0 0 0 2-5 0 0 0 0 3-5 0 0 0 0 2-5 0 0 0 0 2-5 1 0 0 0 0-1 3-4 3-3 3-3 4-2 5-1 4 0 5 0 4 1 4 3 4 2 3 4 2 4 2 4 0 5 0 4-1 5-1 3-1 1-2 5-2 4-2 4-2 5-2 4-2 5-2 5-2 4-2 5-1 4-2 5-1 5-2 4-1 5-2 5-1 4-1 5-2 5-1 5-1 4-1 5-1 5-1 5-1 5-1 5 0 5-1 4-1 5 0 5-1 5 0 5-1 5 0 5 0 5-1 5 0 5 0 5 0 5 0 4 0 4-1 5-2 4-3 3-4 4-3 2-5 2-4 0z m153-334l-5-1-4-3-3-3-3-3-2-4-1-5-1-4 0-5 1-4 2-4 3-4 3-2 1-1 0 0 0 0 4-4 0 0 0 0 4-3 0 0 1 0 4-4 0 0 0 0 4-3 0 0 0 0 5-3 0 0 0 0 4-3 0-1 0 0 5-3 0 0 0 0 4-3 0 0 1 0 4-3 0 0 0 0 5-3 0 0 0 0 4-3 0 0 1 0 4-3 0 0 0 0 5-2 0 0 0-1 5-2 0 0 0 0 4-3 1 0 0 0 4-2 0 0 0-1 5-2 0 0 0 0 5-3 0 0 0 0 5-2 0 0 0 0 5-2 0 0 0 0 5-3 0 0 0 0 5-2 0 0 0 0 5-2 0 0 0 0 5-2 0 0 0 0 5-2 0 0 0 0 5-2 0 0 1 0 4-2 1 0 0 0 5-2 0 0 0 0 5-2 0 0 0 0 5-2 0 0 0 0 5-2 0 0 1 0 5-1 0 0 0 0 5-2 0 0 0 0 5-1 0 0 0 0 5-2 1 0 0 0 5-1 0 0 0 0 5-1 0 0 0 0 6-2 0 0 0 0 4-1 5 0 4 0 5 1 4 2 4 3 3 3 2 4 2 4 1 5 0 4-1 5-1 4-3 4-3 3-4 3-4 2-3 1-5 1-4 1-5 1-5 1-5 2-4 1-5 2-5 1-4 2-5 1-5 2-4 1-5 2-5 2-4 2-5 2-4 2-5 2-4 2-5 2-4 2-4 2-5 3-4 2-4 2-5 3-4 2-4 3-4 3-4 2-4 3-5 3-4 2-4 3-4 3-4 3-3 3-4 3-4 3-1 1-4 3-4 1-4 1-5 1z m542-2l-4-1-5-2-3-2-1-2-4-3-4-3-4-3-4-3-4-3-4-2-4-3-5-3-4-2-4-3-4-3-4-2-5-3-4-2-4-2-5-3-4-2-4-2-5-2-4-2-5-2-4-2-5-2-4-2-5-2-4-2-5-1-5-2-4-1-5-2-5-1-5-2-4-1-5-2-5-1-5-1-4-1-5-1-3-1-5-1-4-2-3-3-3-3-2-4-2-5-1-4 0-5 1-4 2-4 3-4 3-3 4-3 4-2 4-1 5 0 4 0 3 1 0 0 0 0 5 1 0 0 1 0 5 2 0 0 0 0 5 1 0 0 0 0 5 1 0 0 1 0 5 2 0 0 0 0 5 1 0 0 0 0 5 2 0 0 1 0 5 1 0 0 0 0 5 2 0 0 0 0 5 2 0 0 0 0 5 2 0 0 0 0 5 2 1 0 0 0 5 2 0 0 0 0 5 2 0 0 0 0 5 2 0 0 0 0 5 2 0 0 0 0 5 2 0 0 0 0 5 2 0 0 0 0 5 3 0 0 0 0 5 2 0 0 0 0 5 2 0 0 0 0 5 3 0 0 0 0 5 2 0 1 0 0 4 2 1 0 0 0 4 3 0 0 1 0 4 2 0 1 0 0 5 2 0 0 0 0 5 3 0 0 0 0 4 3 0 0 0 0 5 3 0 0 0 0 5 3 0 0 0 0 4 3 0 0 0 0 5 3 0 0 0 1 4 3 0 0 0 0 5 3 0 0 0 0 4 3 0 0 0 0 4 4 1 0 0 0 4 3 0 0 0 0 2 2 3 3 3 4 2 4 1 4 0 5-1 4-1 5-2 4-3 3-4 3-4 2-4 2-4 0z" horiz-adv-x="1000" />

<glyph glyph-name="intermediate-event-catch-parallel-multiple" unicode="&#xe80d;" d="M499 802c-220 4-425-177-448-396-24-185 78-380 247-461 160-80 368-56 501 66 134 118 190 318 128 486-57 167-217 293-393 303-12 1-23 2-35 2z m-5-49c202 7 391-161 407-362 19-178-92-361-262-420-166-61-368-2-468 145-103 144-99 356 18 490 74 90 188 146 305 147z m8-44c-186 6-358-158-361-344-9-169 116-334 283-367 155-33 328 46 397 190 71 140 39 327-83 430-64 57-150 91-236 91z m-2-48c164 4 314-144 311-308 3-152-119-297-272-312-143-19-295 73-336 213-43 134 14 295 138 364 48 28 103 43 159 43z m-61-93c0-52 0-104 0-156-53 0-106 0-159 0 0-41 0-83 0-124 53 0 106 0 159 0 0-52 0-104 0-156 41 0 81 0 122 0 0 52 0 104 0 156 53 0 106 0 159 0 0 41 0 83 0 124-53 0-106 0-159 0 0 52 0 104 0 156-41 0-81 0-122 0z m25-24c24 0 48 0 73 0 0-52 0-104 0-157 53 0 106 0 159 0 0-24 0-49 0-74-53 0-106 0-159 0 0-53 0-105 0-157-25 0-49 0-73 0 0 52 0 104 0 157-54 0-107 0-160 0 0 25 0 50 0 74 53 0 106 0 160 0 0 53 0 105 0 157z" horiz-adv-x="1000" />

<glyph glyph-name="intermediate-event-catch-compensation" unicode="&#xe80e;" d="M499 802c-220 4-425-177-448-396-24-185 78-380 247-461 160-80 368-56 501 66 134 118 190 318 128 486-57 167-217 293-393 303-12 1-23 2-35 2z m-5-49c202 7 391-161 407-362 19-178-92-361-262-420-166-61-368-2-468 145-103 144-99 356 18 490 74 90 188 146 305 147z m8-44c-186 6-358-158-361-344-9-169 116-334 283-367 155-33 328 46 397 190 71 140 39 327-83 430-64 57-150 91-236 91z m-2-48c164 4 314-144 311-308 3-152-119-297-272-312-143-19-295 73-336 213-43 134 14 295 138 364 48 28 103 43 159 43z m-16-163c-70-49-140-99-209-148 70-49 139-99 209-148 0 48 0 95 0 143 67-48 135-95 202-143 0 99 0 197 0 296-67-48-135-95-202-143 0 48 0 95 0 143z m-24-47c0-67 0-134 0-201-48 33-95 67-143 100 48 34 95 67 143 101z m202 0c0-67 0-134 0-202-48 34-95 68-143 101 48 34 95 67 143 101z" horiz-adv-x="1000" />

<glyph glyph-name="gateway-xor" unicode="&#xe80f;" d="M500 802c-9 0-19-4-26-11l-415-415c-14-14-14-38 0-52l415-415c14-14 38-14 52 0l415 415c14 14 14 38 0 52l-415 415c-7 7-17 11-26 11z m0-62l390-390-390-390-390 390 390 390z m-146-217c0 0-4-1-4-1 0 0-4-3-4-3l-15-15c0 0-3-4-3-4 0 0-1-4-1-4 0 0 1-5 1-5 0 0 3-4 3-4l137-137-137-137 0 0c0 0-3-4-3-4 0 0-1-5-1-5 0 0 1-4 1-4 0 0 3-4 3-4l15-15c0 0 4-3 4-3 0 0 4-1 4-1 0 0 5 1 5 1 0 0 4 3 4 3l137 137 137-137c0 0 4-3 4-3 0 0 5-1 5-1 0 0 4 1 4 1 0 0 4 3 4 3l15 15c0 0 3 4 3 4 0 0 1 4 1 4 0 0-1 5-1 5 0 0-3 4-3 4l-137 137 137 137c0 0 3 4 3 4 0 0 1 5 1 5 0 0-1 4-1 4 0 0-3 4-3 4l-15 15c0 0-4 3-4 3 0 0-4 1-4 1 0 0-5-1-5-1 0 0-4-3-4-3l-137-137-137 137 0 1c0 0-4 2-4 2 0 0-5 1-5 1l0 0z" horiz-adv-x="1000" />

<glyph glyph-name="connection" unicode="&#xe810;" d="M911 749c0 0-285-146-431-214 31-28 60-59 90-89-147-149-295-299-443-448 11-11 22-21 33-31 148 149 295 299 443 448 30-29 60-60 90-90 77 153 218 424 218 424z" horiz-adv-x="1000" />

<glyph glyph-name="end-event-cancel" unicode="&#xe811;" d="M491 802c-219 0-420-183-440-400-22-186 82-380 253-459 158-77 361-53 492 67 134 115 192 312 133 480-55 172-220 303-401 311-13 1-25 1-37 1z m9-142c161 5 308-137 310-298 7-147-103-292-250-317-142-28-300 54-350 192-53 136 2 309 132 380 47 28 103 43 158 43z m-112-110c-29-30-58-59-87-88 37-38 75-75 112-113-37-36-74-73-110-110 28-29 57-58 86-86 37 37 73 73 110 110 38-37 75-75 113-112 29 29 58 58 88 87-38 38-76 75-113 113 37 37 74 73 110 110-28 29-57 58-86 86-37-36-73-73-110-110-38 37-75 75-113 113z" horiz-adv-x="1000" />

<glyph glyph-name="intermediate-event-catch-condition" unicode="&#xe812;" d="M499 802c-1 0-2 0-3 0-202 1-391-150-436-346-42-173 28-368 174-471 145-107 354-116 506-18 149 93 235 276 207 450-26 176-164 330-338 371-36 9-73 14-110 14z m-5-49c3 0 7 0 10 0 187 2 362-146 392-331 32-167-54-348-205-427-154-85-363-54-483 77-124 127-147 338-53 488 71 116 203 192 339 193z m8-44c-3 0-7 0-10 0-172 0-330-143-349-314-22-161 79-328 233-382 145-55 322-3 413 124 98 129 92 326-17 447-67 77-167 125-270 125z m-2-48c2 0 4 0 6 0 153 0 292-129 304-281 16-145-84-293-225-330-137-40-296 27-361 154-69 129-33 305 86 392 54 42 122 65 190 65z m-151-121l0-12 0-368 50 0 202 0 50 0 0 380-302 0z m24-24l254 0 0-332-26 0-202 0-26 0 0 332z m26-37l0-25 202 0 0 25-202 0z m0-74l0-24 202 0 0 24-202 0z m0-85l0-24 202 0 0 24-202 0z m0-77l0-24 202 0 0 24-202 0z" horiz-adv-x="1000" />

<glyph glyph-name="intermediate-event-catch-non-interrupting-parallel-multiple" unicode="&#xe813;" d="M430 545l0-125-125 0 0-140 125 0 0-125 140 0 0 125 125 0 0 140-125 0 0 125z m23-23l94 0 0-125 125 0 0-94-125 0 0-125-94 0 0 126-125 0 0 93 125 0z m47 280l0 0-5 0-1 0 0 0-5 0 0 0 0 0-6-1 0 0 0 0-5 0 0 0 0 0-6 0 0 0 0 0-5-1 0 0-1 0-5 0 0 0 0 0-5 0-1 0 0-1-5 0 0 0 0 0-5-1-1 0 0 0-5 0 0 0 0 0-5-1-1 0 0 0-5-1 0 0 0 0-5-1-1 0 0 0-5-1 0 0 0 0-5-1 0 0-1 0-5-1 0 0 0 0-5-1 0 0 0 0-6-2 0 0 0 0-5-1 0 0 0 0-5-1-4-2-4-2-4-3-2-4-3-4-1-4 0-5 0-4 1-4 2-5 3-3 3-3 4-3 4-1 5-1 4 0 4 1 5 1 5 1 4 1 5 1 5 1 5 1 5 1 5 1 5 0 4 1 5 1 5 0 5 1 5 0 5 1 5 0 5 0 5 1 5 0 5 0 5 0 5 0 5 0 5 0 5-1 5 0 5 0 5-1 5 0 5-1 5 0 5-1 5-1 4 0 5-1 5-1 5-1 5-1 4-1 5 0 4 0 5 1 4 2 3 3 4 3 2 4 2 4 1 4 0 5-1 4-2 5-2 4-3 3-4 3-4 2-3 1-5 1 0 0 0 0-5 1 0 0-1 0-5 1 0 0 0 0-5 1 0 0 0 0-6 1 0 0 0 0-5 1 0 0 0 0-6 1 0 0 0 0-5 0 0 0 0 0-6 1 0 0 0 0-5 0 0 1 0 0-6 0 0 0 0 0-5 0 0 0-1 0-5 1 0 0 0 0-5 0-1 0 0 0-5 0 0 0 0 0-6 1 0 0 0 0-5 0 0 0 0 0-6 0 0 0z m255-83l-5 0-4-1-5-2-3-2-4-4-2-3-2-4-1-5-1-4 1-5 1-4 3-4 3-4 2-2 2-1 4-3 4-3 4-3 3-3 4-4 4-3 4-3 3-3 4-4 4-3 3-4 4-3 3-4 4-3 3-4 4-4 3-3 3-4 3-4 4-4 3-3 3-4 3-4 3-4 3-4 3-4 2-4 3-4 3-5 3-4 2-4 3-4 2-4 3-5 2-4 2-4 3-5 2-4 1-2 2-4 4-3 3-3 4-2 5-1 4-1 5 1 4 1 4 2 4 3 3 3 2 4 2 4 0 5 0 4-1 5-1 3-1 3 0 0 0 0-3 5 0 0 0 0-2 5 0 0-1 0-2 4 0 1 0 0-3 4 0 0 0 1-2 4-1 0 0 0-2 5 0 0 0 0-3 5 0 0 0 0-3 4 0 0 0 0-3 5 0 0 0 0-3 5 0 0 0 0-3 4 0 0 0 0-3 5 0 0-1 0-3 4 0 0 0 0-3 5 0 0 0 0-3 4 0 0 0 0-4 4 0 1 0 0-3 4 0 0 0 0-3 4-1 0 0 0-3 4 0 1 0 0-4 4 0 0 0 0-3 4 0 0-1 0-3 4 0 0 0 0-4 4 0 0 0 0-4 4 0 0 0 1-4 3 0 0 0 1-3 3-1 0 0 1-3 3-1 0 0 0-3 4-1 0 0 0-4 4 0 0 0 0-4 4 0 0 0 0-4 3 0 1 0 0-4 3 0 0 0 0-4 4 0 0-1 0-4 3 0 0 0 1-4 3 0 0 0 0-4 3 0 0-1 0-4 4 0 0 0 0-4 3 0 0 0 0-2 1-4 3-4 1-4 1z m-519-10l-5 0-4-1-4-2-4-2-1-1 0 0 0 0-4-3 0-1 0 0-4-3 0 0-1 0-4-4 0 0 0 0-4-3 0 0 0-1-4-3 0 0 0 0-4-4 0 0 0 0-4-4 0 0 0 0-4-4 0 0 0 0-4-3 0-1 0 0-4-3 0-1 0 0-4-3 0-1 0 0-4-4 0 0 0 0-4-4 0 0 0 0-3-4 0 0-1 0-3-4 0 0 0 0-4-4 0 0 0-1-3-4 0 0 0 0-4-4 0 0 0 0-3-4 0 0 0-1-4-4 0 0 0 0-3-4 0 0 0 0-3-5 0 0 0 0-3-4 0 0-1 0-3-5 0 0 0 0-3-4 0 0 0 0-3-5 0 0 0 0-3-5 0 0 0 0-3-4 0 0 0 0-2-5-1 0 0 0-2-5 0 0 0 0-3-4 0-1 0 0-3-4 0 0 0-1-2-4 0 0 0 0-3-5 0 0 0 0-2-5 0 0-1 0-2-5 0 0 0 0-2-5 0 0 0 0-3-5 0 0 0 0-1-3-1-4-1-5 0-4 1-5 2-4 3-4 3-3 4-2 4-2 4-1 5 0 4 0 5 2 3 2 4 3 3 4 2 3 1 3 2 4 2 5 2 4 2 4 3 5 2 4 2 4 3 5 2 4 3 4 3 4 2 4 3 5 3 4 2 4 3 4 3 4 3 4 3 4 3 4 3 3 4 4 3 4 3 4 3 3 4 4 3 4 4 3 3 4 4 3 3 4 4 3 4 4 3 3 4 3 4 3 4 4 4 3 1 1 3 3 3 3 2 5 1 4 0 4-1 5-1 4-2 4-3 4-4 3-4 2-4 2-4 0z m264 0l0 0-4 0 0 0-1 0-4 0 0 0 0 0-4 0 0 0 0 0-5 0 0-1 0 0-4 0 0 0 0 0-4 0-1 0 0 0-4 0 0 0 0 0-4-1 0 0-1 0-1 0-4-1-5-2-3-2-4-3-2-4-2-4-2-4 0-5 1-4 1-5 2-4 3-3 4-3 4-3 4-1 4-1 4 0 1 1 4 0 4 0 4 1 4 0 3 0 4 0 4 0 4 0 4 0 4 0 4 0 3 0 4 0 4-1 4 0 4 0 3-1 4 0 4-1 4 0 4-1 3-1 4 0 4-1 4-1 3 0 4-1 4-1 3-1 4-1 4-1 3-1 4-1 3-2 4-1 4-1 3-1 4-2 3-1 4-1 3-2 0 0 0 0 4-1 5-1 5 0 4 1 4 2 4 3 3 3 2 4 2 4 1 5 0 4 0 5-2 4-2 4-3 3-4 3-3 2 0 0-1 0 0 0-3 2-1 0 0 0-4 1 0 0 0 0-4 2 0 0 0 0-4 1 0 0 0 0-4 2 0 0 0 0-4 1 0 0 0 0-4 2 0 0 0 0-4 1 0 0-1 0-3 1-1 0 0 0-4 2 0 0 0 0-4 1 0 0 0 0-4 1 0 0 0 0-4 1 0 0-1 0-4 1 0 0 0 0-4 1 0 0 0 0-4 1 0 0 0 0-4 1-1 0 0 0-4 1 0 0 0 0-4 1 0 0 0 0-4 0-1 0 0 0-4 1 0 0 0 0-4 1 0 0 0 0-5 0 0 0 0 0-4 1 0 0 0 0-4 0 0 0-1 0-4 1 0 0 0 0-4 0 0 0 0 0-5 0 0 0 0 0-4 0 0 0 0 1-4 0-1 0 0 0-4 0 0 0 0 0-4 0 0 0-1 0-4 0 0 0z m-155-39l-4 0-5-1-3-1-2-1 0 0 0 0-4-2 0 0 0 0-3-2-1-1 0 0-3-2 0 0-1 0-3-2 0 0 0 0-4-2 0 0 0 0-4-2 0-1 0 0-3-2 0 0-1 0-3-2 0 0 0 0-4-3 0 0 0 0-3-2 0 0 0 0-4-3 0 0 0 0-3-2 0 0-1-1-3-2 0 0 0 0-3-3 0 0-1 0-3-2 0-1 0 0-3-2 0 0-1 0-3-3 0 0 0 0-3-3 0 0 0 0-3-3-1 0 0 0-3-3 0 0 0 0-3-3 0 0 0 0-3-3 0 0 0 0-3-3-1 0 0 0-3-3 0 0 0 0-3-3 0 0 0 0-3-3 0-1 0 0-3-3 0 0 0 0-3-3 0 0 0 0-3-3 0 0 0 0-3-4 0 0 0 0-3-3 0 0 0 0-2-3-1 0 0-1-2-3 0 0 0 0-3-3 0 0 0-1-3-3 0 0 0 0-2-3 0 0-1-1-2-3 0 0 0 0-2-3-1-1 0 0-2-3 0 0 0 0-2-4-1 0 0 0-2-3-2-4-1-4-1-5 1-4 1-5 2-4 3-3 3-4 4-2 4-2 4-1 5 0 4 1 5 2 4 2 3 3 2 3 2 3 2 3 2 3 3 3 2 4 2 3 2 3 3 3 2 3 3 2 2 3 3 3 2 3 3 3 2 3 3 3 3 2 3 3 2 3 3 2 3 3 3 2 3 3 3 2 3 3 3 2 3 3 3 2 3 2 3 3 3 2 3 2 3 2 3 2 3 2 4 2 3 2 3 2 3 2 4 2 3 2 2 0 3 3 4 3 2 4 2 4 1 4 1 5-1 4-1 5-3 4-2 3-4 3-4 2-4 2-5 0z m393-59l-5-1-4-1-4-1-4-3-3-3-3-4-1-4-1-5-1-4 1-5 2-4 2-4 2-3 3-2 3-3 2-3 3-3 2-3 3-3 2-3 3-2 2-3 3-3 2-3 2-3 3-4 2-3 2-3 2-3 2-3 2-3 2-4 2-3 2-3 2-3 2-4 2-3 1-3 2-4 2-3 1-3 2-4 2-3 1-4 1-3 2-4 1-3 2-4 1-3 1-4 1-4 2-3 1-4 1-3 0-3 2-4 2-4 4-3 3-3 4-2 5-1 4 0 5 0 4 1 4 3 4 2 3 4 2 4 2 4 0 5 0 4-1 4 0 2 0 0 0 0-2 4 0 0 0 1-1 3 0 1 0 0-1 4 0 0 0 0-2 4 0 0 0 0-1 4 0 0 0 0-2 4 0 0 0 0-1 4 0 0 0 0-2 4 0 0 0 0-1 4 0 0 0 1-2 3 0 0 0 1-2 3 0 0 0 1-2 3 0 0 0 1-1 3 0 0-1 1-1 3 0 0 0 0-2 4 0 0 0 0-2 4 0 0 0 0-2 4 0 0 0 0-2 4 0 0-1 0-1 4-1 0 0 0-2 3 0 1 0 0-2 3 0 0 0 0-2 4 0 0 0 0-2 4-1 0 0 0-2 3 0 0 0 1-2 3 0 0 0 0-3 4 0 0 0 0-2 3 0 0 0 1-3 3 0 0 0 0-2 3 0 1-1 0-2 3 0 0 0 0-3 3 0 1 0 0-2 3-1 0 0 0-2 3 0 1 0 0-3 3 0 0 0 0-3 3 0 0 0 0-3 4 0 0 0 0-3 3 0 0 0 0-3 3 0 0 0 0-3 3 0 0 0 1-3 3 0 0 0 0-3 2-3 3-4 3-5 1-4 1z m-564-171l-5 0-4-1-4-2-4-2-3-4-3-3-2-4-1-4-1-4 0 0 0 0 0-4 0 0-1 0 0-4 0-1 0 0-1-4 0 0 0 0-1-4 0 0 0 0 0-5 0 0 0 0-1-4 0 0 0 0 0-4 0 0 0-1 0-4 0 0-1 0 0-4 0 0 0 0 0-5 0 0 0 0 0-4 0 0 0 0-1-4 0-1 0 0 0-4 0 0 0 0 0-4 0 0 0-1 0-4 0 0 0 0 0-4 0 0 0-1 0-4 0 0 0 0 0-4 0 0 0 0 1-5 0 0 0 0 0-4 0 0 0 0 0-4 0-1 0 0 0-4 1 0 0 0 0-4 0 0 0-1 0-4 0 0 0 0 1-4 0 0 0 0 0-4 0-1 0 0 1-4 0 0 0 0 1-4 0 0 0 0 0-4 1-1 0 0 0-4 0 0 0 0 1-4 0 0 0 0 1-4 0-1 0 0 1-4 0 0 0 0 1-4 0 0 0 0 1-4 0 0 0-1 1-4 0 0 0 0 1-4 0 0 0 0 1-4 0 0 0 0 2-4 0 0 0 0 1-4 0-1 0 0 1-1 1-4 3-4 3-3 4-3 4-2 4-1 5 0 4 1 5 1 4 2 3 3 3 4 2 4 2 4 0 5 0 4-1 4 0 1-2 4-1 4-1 3-1 4-1 3-1 4 0 4-1 4-1 3-1 4 0 4-1 4-1 3 0 4-1 4 0 4 0 3-1 4 0 4 0 4-1 4 0 4 0 3 0 4 0 4 0 4 0 4 0 4 0 3 1 4 0 4 0 4 1 4 0 3 0 4 1 4 0 4 1 4 1 3 0 4 1 4 0 4 0 5-1 4-2 4-3 4-3 3-4 2-5 2-4 1z m754-46l-5 0-4-1-4-2-4-2-3-4-3-4-2-4 0-4-1-4 1-4 0-5 0-5 0-5 0-5 0-5 0-5-1-5 0-5 0-5-1-5 0-5-1-5 0-5-1-5-1-4 0-5-1-5-1-5-1-5-1-5-1-5-1-4-1-5-1-5-2-5-1-4-2-5-1-5-1-4-2-5-2-5-1-4-2-5-2-4-2-5-2-5-2-4-2-5-2-4-2-4-2-5-2-4-2-5-1-4 0-5 1-4 2-4 2-4 3-4 4-2 4-2 4-2 5 0 4 1 5 1 4 2 3 3 3 3 2 3 3 5 0 0 0 0 2 5 0 0 0 0 2 5 0 0 0 0 3 5 0 0 0 0 2 5 0 0 0 0 2 5 0 0 0 0 2 5 0 0 0 0 2 5 0 0 0 0 2 5 0 0 0 1 2 4 0 1 0 0 2 5 0 0 0 0 2 5 0 0 0 0 2 5 0 0 0 0 2 5 0 0 0 1 1 5 0 0 0 0 2 5 0 0 0 0 1 5 0 0 0 0 2 5 0 1 0 0 1 5 0 0 0 0 1 5 0 0 0 0 2 6 0 0 0 0 1 5 0 0 0 0 1 5 0 1 0 0 1 5 0 0 0 0 1 5 0 0 0 1 1 5 0 0 0 0 1 5 0 0 0 1 1 5 0 0 0 0 0 5 0 0 0 1 1 5 0 0 0 0 0 5 1 0 0 1 0 5 0 0 0 0 0 5 0 1 0 0 1 5 0 0 0 0 0 6 0 0 0 0 0 5 0 0 0 0 1 6 0 0 0 0 0 5 0 0 0 1 0 5 0 0 0 0 0 6 0 0 0 0 0 5 0 0 0 0-1 6 0 0 0 0 0 4 0 5-2 4-2 4-3 3-4 3-4 2-4 2-4 0z m-853-16l-5 0-4-1-4-1-4-3-4-3-2-4-2-4-1-4-1-4 0-4 0 0 0 0 0-5 0-1 0 0 1-5 0 0 0 0 0-6 0 0 0 0 0-5 0 0 0 0 0-6 0 0 0 0 1-5 0 0 0-1 0-5 0 0 0 0 1-5 0-1 0 0 0-5 0 0 0 0 1-5 0-1 0 0 1-5 0 0 0 0 0-5 0-1 0 0 1-5 0 0 0 0 1-5 0-1 0 0 1-5 0 0 0 0 1-5 0 0 0-1 1-5 0 0 0 0 1-5 0 0 0 0 2-6 0 0 0 0 1-5 0 0 0 0 1-5 0 0 0-1 2-5 0 0 0 0 1-5 0 0 0 0 2-5 0 0 0 0 2-5 0-1 0 0 1-5 0 0 0 0 2-5 0 0 0 0 2-5 0 0 0 0 2-5 0 0 0-1 2-4 0-1 0 0 2-5 0 0 0 0 2-5 0 0 0 0 2-5 0 0 0 0 2-5 0 0 0 0 2-5 0 0 0 0 3-5 0 0 0 0 2-5 0 0 0 0 2-5 1 0 0 0 0-1 3-4 3-3 3-3 4-2 5-1 4 0 5 0 4 1 4 3 4 2 3 4 2 4 2 4 0 5 0 4-1 5-1 3-1 1-2 5-2 4-2 4-2 5-2 4-2 5-2 5-2 4-2 5-1 4-2 5-1 5-2 4-1 5-2 5-1 4-1 5-2 5-1 5-1 4-1 5-1 5-1 5-1 5-1 5 0 5-1 4-1 5 0 5-1 5 0 5-1 5 0 5 0 5-1 5 0 5 0 5 0 5 0 4 0 4-1 5-2 4-3 3-4 4-3 2-5 2-4 0z m756-57l-4 0-5-1-4-2-4-3-3-3-2-4-2-4-1-3 0 0 0 0 0 0 0 0-1-4 0-4-1-4-1-3 0-4-1-4-1-4-1-3-1-4-1-3-1-4-1-4-2-3-1-4-1-3-1-4-2-4-1-3-2-4-1-3-1-4-2-3-2-3-1-4-2-3-2-4-1-3-2-3-2-4-2-3-2-3-2-3-2-4-2-3-2-3-2-3-2-3-2-3-3-3-2-3-2-4-2-1-2-4-2-4-1-5 0-4 1-5 2-4 2-4 3-3 4-3 4-2 4-1 5-1 4 1 4 1 5 2 3 3 3 3 1 1 0 1 0 0 3 3 0 0 0 0 2 3 1 1 0 0 2 3 0 0 0 0 3 4 0 0 0 0 2 3 0 0 0 0 3 4 0 0 0 0 2 3 0 1 0 0 2 3 0 0 1 0 2 4 0 0 0 0 2 4 0 0 0 0 2 3 0 1 0 0 2 3 0 0 1 1 2 3 0 0 0 0 2 4 0 0 0 0 2 4 0 0 0 0 2 4 0 0 0 0 2 4 0 0 0 0 1 4 1 0 0 0 1 4 0 0 0 0 2 4 0 0 0 0 2 4 0 0 0 0 2 4 0 0 0 0 1 4 0 0 0 0 2 4 0 0 0 0 1 4 0 0 0 0 2 4 0 0 0 0 1 4 0 0 0 0 2 4 0 0 0 0 1 4 0 0 0 1 1 4 0 0 0 0 2 4 0 0 0 0 1 4 0 0 0 0 1 4 0 0 0 0 1 4 0 1 0 0 1 4 0 0 0 0 1 4 0 0 0 0 1 4 0 0 0 1 1 4 0 0 0 0 1 4 0 0 0 0 1 4 0 0 0 1 0 4 0 0 0 0 0 0 1 5-1 4-1 4-2 4-3 4-4 3-4 2-4 2-5 0z m-590-160l-4-1-4-2-4-2-4-3-3-3-2-4-1-5-1-4 1-5 1-4 2-4 2-3 1-2 0 0 0 0 3-3 0 0 0 0 3-3 0-1 0 0 3-3 0 0 0 0 3-3 0 0 0 0 3-3 0 0 0 0 3-3 0-1 0 0 3-3 0 0 0 0 3-3 0 0 1 0 3-3 0 0 0 0 3-3 0 0 0 0 3-3 0 0 0 0 3-3 0 0 1 0 3-3 0 0 0 0 3-3 0 0 0 0 3-2 1-1 0 0 3-2 0 0 0 0 3-3 1 0 0 0 3-3 0 0 0 0 3-2 1 0 0-1 3-2 0 0 0 0 4-2 0-1 0 0 3-2 0 0 0 0 4-2 0-1 0 0 3-2 1 0 0 0 3-2 0 0 0 0 4-3 0 0 0 0 4-2 0 0 0 0 3-2 1 0 0 0 3-2 0 0 1 0 3-2 0 0 0-1 4-1 0-1 0 0 4-2 0 0 0 0 4-2 0 0 0 0 4-1 0-1 0 0 4-1 0 0 0 0 4-2 0 0 0 0 4-2 0 0 0 0 4-2 0 0 0 0 4-1 0-1 0 0 4-1 0 0 0 0 4-2 4-1 4 0 5 0 4 1 4 2 4 3 3 4 2 3 2 5 1 4 0 5-1 4-2 4-2 4-4 3-3 3-4 2-3 1-4 2-3 1-4 2-3 1-3 2-4 1-3 2-4 2-3 2-3 1-4 2-3 2-3 2-3 2-4 2-3 2-3 2-3 2-3 2-3 3-3 2-4 2-3 2-2 3-3 2-3 3-3 2-3 3-3 2-3 3-3 2-2 3-3 3-3 3-3 2-2 3-3 3-2 3-3 3-2 3-1 1-4 3-3 3-5 1-4 1-5 1z m426-77l-5 0-4-1-4-2-1-1-4-2-3-1-3-2-4-2-3-2-3-1-4-2-3-1-4-2-3-1-4-2-3-1-4-2-3-1-4-1-4-1-3-1-4-2-3-1-4-1-4-1-3-1-4-1-4 0-3-1-4-1-4-1-4 0-3-1-4-1-4 0-4-1-3 0-4 0-4-1-4 0-4 0-4-1-3 0-4 0-4 0-5 0-4-2-4-2-4-3-3-3-2-4-1-4-1-5 0-5 1-4 2-4 2-4 4-3 3-3 4-2 5-1 4 0 4 0 0 0 0 0 4 0 0 0 1 0 4 1 0 0 0 0 4 0 0 0 0 0 5 0 0 0 0 0 4 0 0 0 0 0 4 1 1 0 0 0 4 0 0 0 0 0 4 1 0 0 0 0 5 0 0 0 0 0 4 1 0 0 0 0 4 1 0 0 1 0 4 0 0 0 0 0 4 1 0 0 0 0 4 1 0 0 1 0 4 1 0 0 0 0 4 1 0 0 0 0 4 1 0 0 0 0 4 1 1 0 0 0 4 1 0 0 0 0 4 1 0 0 0 0 4 1 0 0 0 0 4 2 0 0 1 0 3 1 1 0 0 0 4 1 0 0 0 0 4 2 0 0 0 0 4 1 0 0 0 0 4 2 0 0 0 0 4 1 0 0 0 0 4 2 0 0 0 0 4 1 0 0 1 1 3 1 0 0 1 0 3 2 0 0 1 0 3 2 0 0 1 0 3 2 0 0 1 0 3 1 0 0 0 1 4 1 0 0 0 0 4 2 0 0 0 0 4 2 0 0 0 1 4 1 0 1 0 0 4 2 0 0 0 0 2 1 3 2 4 4 2 3 2 5 1 4 0 5-1 4-1 4-3 4-3 4-3 3-4 2-5 1-4 0z m-440-39l-4-1-5-1-4-3-3-3-3-3-2-4-1-5-1-4 0-5 1-4 2-4 3-4 3-2 1-1 0 0 0 0 4-4 0 0 0 0 4-3 0 0 1 0 4-4 0 0 0 0 4-3 0 0 0 0 5-3 0 0 0 0 4-3 0-1 0 0 5-3 0 0 0 0 4-3 0 0 1 0 4-3 0 0 0 0 5-3 0 0 0 0 4-3 0 0 1 0 4-3 0 0 0 0 5-2 0 0 0-1 5-2 0 0 0 0 4-3 1 0 0 0 4-2 0 0 0-1 5-2 0 0 0 0 5-3 0 0 0 0 5-2 0 0 0 0 5-2 0 0 0 0 5-3 0 0 0 0 5-2 0 0 0 0 5-2 0 0 0 0 5-2 0 0 0 0 5-2 0 0 0 0 5-2 0 0 1 0 4-2 1 0 0 0 5-2 0 0 0 0 5-2 0 0 0 0 5-2 0 0 0 0 5-2 0 0 1 0 5-1 0 0 0 0 5-2 0 0 0 0 5-1 0 0 0 0 5-2 1 0 0 0 5-1 0 0 0 0 5-1 0 0 0 0 6-2 0 0 0 0 4-1 5 0 4 0 5 1 4 2 4 3 3 3 2 4 2 4 1 5 0 4-1 5-1 4-3 4-3 3-4 3-4 2-3 1-5 1-4 1-5 1-5 1-5 2-4 1-5 2-5 1-4 2-5 1-5 2-4 1-5 2-5 2-4 2-5 2-4 2-5 2-4 2-5 2-4 2-4 2-5 3-4 2-4 2-5 3-4 2-4 3-4 3-4 2-4 3-5 3-4 2-4 3-4 3-4 3-3 3-4 3-4 3-1 1-4 3-4 1-4 1-5 1z m543-3l-5 0-4-1-5-2-3-2-1-2-4-3-4-3-4-3-4-3-4-3-4-2-4-3-5-3-4-2-4-3-4-3-4-2-5-3-4-2-4-2-5-3-4-2-4-2-5-2-4-2-5-2-4-2-5-2-4-2-5-2-4-2-5-1-5-2-4-1-5-2-5-1-5-2-4-1-5-2-5-1-5-1-4-1-5-1-3-1-5-1-4-2-3-3-3-3-2-4-2-5-1-4 0-5 1-4 2-4 3-4 3-3 4-3 4-2 4-1 5 0 4 0 3 1 0 0 0 0 5 1 0 0 1 0 5 2 0 0 0 0 5 1 0 0 0 0 5 1 0 0 1 0 5 2 0 0 0 0 5 1 0 0 0 0 5 2 0 0 1 0 5 1 0 0 0 0 5 2 0 0 0 0 5 2 0 0 0 0 5 2 0 0 0 0 5 2 1 0 0 0 5 2 0 0 0 0 5 2 0 0 0 0 5 2 0 0 0 0 5 2 0 0 0 0 5 2 0 0 0 0 5 2 0 0 0 0 5 3 0 0 0 0 5 2 0 0 0 0 5 2 0 0 0 0 5 3 0 0 0 0 5 2 0 1 0 0 4 2 1 0 0 0 4 3 0 0 1 0 4 2 0 1 0 0 5 2 0 0 0 0 5 3 0 0 0 0 4 3 0 0 0 0 5 3 0 0 0 0 5 3 0 0 0 0 4 3 0 0 0 0 5 3 0 0 0 1 4 3 0 0 0 0 5 3 0 0 0 0 4 3 0 0 0 0 4 4 1 0 0 0 4 3 0 0 0 0 2 2 3 3 3 4 2 4 1 4 0 5-1 4-1 5-2 4-3 3-4 3-4 2-4 2-4 0z" horiz-adv-x="1000" />

<glyph glyph-name="start-event-condition" unicode="&#xe814;" d="M500 802c-249 0-452-203-452-452 0-249 203-452 452-452 249 0 452 203 452 452 0 249-203 452-452 452z m0-49c223 0 403-180 403-403 0-223-180-403-403-403-223 0-403 180-403 403 0 223 180 403 403 403z m-151-213l0-12 0-368 50 0 202 0 50 0 0 380-302 0z m24-24l254 0 0-332-26 0-202 0-26 0 0 332z m26-37l0-25 202 0 0 25-202 0z m0-74l0-24 202 0 0 24-202 0z m0-85l0-24 202 0 0 24-202 0z m0-77l0-24 202 0 0 24-202 0z" horiz-adv-x="1000" />

<glyph glyph-name="start-event-non-interrupting-timer" unicode="&#xe815;" d="M500 564c-85 2-167-54-198-133-33-76-15-170 43-229 56-60 149-82 226-54 81 28 141 108 143 194 5 83-46 166-121 201-29 14-61 21-93 21z m0-39c78 2 152-55 170-131 20-73-14-156-79-194-67-42-160-31-215 26-58 56-68 152-24 219 32 49 89 81 148 80z m55-49c-19-36-39-71-58-107-18-2-23-29-6-36 11-8 20 5 30 4 30 0 59 0 89 0 0 8 0 17 0 25-30 0-60 0-89 0 18 34 37 68 56 102-7 4-14 8-22 12z m-51 324l-7 0 0 0 0 0-6 0 0 0 0 0-7 0 0 0 0 0-6-1 0 0-1 0-6 0 0 0 0 0-6 0-1 0 0 0-6-1 0 0 0 0-6-1-1 0 0 0-6 0 0 0 0 0-6-1-1 0 0 0-6-1 0 0 0 0-6-1-1 0 0 0-6-1 0 0 0 0-6-1-1 0 0 0-6-1 0-1 0 0-6-1 0 0-1 0-6-1 0 0 0 0-6-2 0 0 0 0-4-1-4-1-4-2-3-3-3-4-2-4-2-4 0-5 0-4 1-5 2-4 3-4 3-3 4-2 5-2 4-1 5 0 3 1 3 1 6 1 6 1 6 2 5 1 6 1 6 1 6 1 6 0 6 1 5 1 6 0 6 1 6 0 6 1 6 0 6 0 6 0 6 0 6 0 5 0 6 0 6-1 6 0 6-1 6 0 6-1 5 0 6-1 6-1 6-1 6-1 5-1 2 0 4-1 5 0 4 2 4 2 4 2 3 4 3 3 1 5 1 4 0 5-1 4-1 4-3 4-3 4-3 2-5 2-3 1-2 1 0 0 0 0-6 1 0 0-1 0-6 1 0 0 0 0-6 1 0 0-1 0-6 1 0 0 0 0-6 1 0 0 0 0-7 1 0 0 0 0-6 0 0 1-1 0-6 0 0 0 0 0-6 1 0 0-1 0-6 0 0 0 0 0-6 0-1 0 0 0-6 1 0 0 0 0-6 0-1 0 0 0-6 0 0 0z m246-79l-5-1-4-1-4-3-3-3-3-4-1-4-2-4 0-5 1-4 1-5 2-4 3-3 3-3 2-1 0 0 2-2 0 0 3-1 0 0 2-2 0 0 2-2 2-2 0 0 3-2 0 0 2-1 2-2 0 0 2-2 3-2 0 0 2-2 2-2 0 0 2-2 2-2 1 0 2-2 2-2 2-2 0 0 2-2 0 0 2-2 0 0 2-2 2-2 0 0 2-3 0 0 2-2 2-2 0 0 2-2 2-2 0 0 2-3 0 0 2-2 2-2 2-2 0 0 2-3 2-2 2-2 0-1 1-2 0 0 2-2 0 0 2-3 0 0 1 0 2-4 3-3 2-4 3-3 2-3 3-4 2-3 2-4 0 0 3-3 2-4 2-4 3-3 2-4 2-3 2-4 2-4 2-3 2-4 2-4 1-2 3-4 3-4 3-2 4-2 5-2 4 0 5 1 4 1 4 2 4 3 3 3 2 4 2 4 0 5 0 5-1 4-1 3-2 3 0 0 0 0-2 4 0 0 0 1-2 4 0 0 0 0-2 4 0 0 0 0-2 4-1 0 0 0-2 4 0 0 0 0-2 4 0 0 0 0-3 4 0 0 0 0-2 4 0 0 0 0-3 4 0 0 0 0-2 4 0 0 0 0-3 4 0 0 0 0-2 4 0 0-1 0-2 4 0 0 0 0-3 4 0 0 0 0-3 4 0 0 0 0-2 3 0 1-1 0-2 3 0 0 0 0-3 4 0 0 0 0-3 3-2 3 0 0 0 0-2 3 0 0 0 0-2 2 0 0 0 0-2 3 0 0 0 0-2 3 0 0 0 0-2 2 0 0 0 0-2 3 0 0 0 0-3 3 0 0 0 0-2 2 0 0 0 0-2 3 0 0 0 0-2 2 0 0 0 0-3 3 0 0 0 0-2 2 0 0 0 0-2 3 0 0 0 0-2 2-1 0 0 0-2 3 0 0 0 0-2 2 0 0 0 0-3 3 0 0 0 0-2 2 0 0 0 0-2 2 0 0-1 0-2 3 0 0 0 0-2 2 0 0 0 0-3 2 0 0 0 0-2 2 0 0 0 0-3 3 0 0 0 0-2 2 0 0 0 0-3 2 0 0 0 0-2 2 0 0 0 0-3 2 0 0 0 0-2 2-1 0 0 1-2 1 0 1 0 0-3 2 0 0 0 0-2 2 0 0 0 0-3 2 0 0 0 0-3 2 0 0 0 0-2 2 0 0 0 0-2 1-4 2-4 2-5 0z m-521-12l-5-1-4-2-3-2 0 0 0 0-1 0-2-2 0 0 0 0-3-2 0 0 0 0-2-2 0 0 0 0-3-2 0 0 0 0-2-2 0 0 0-1-3-2 0 0 0 0-2-2 0 0 0 0-3-2 0 0 0 0-2-2 0 0 0 0-3-2 0-1 0 0-2-2 0 0 0 0-2-2 0 0-1 0-2-2 0 0 0-1-2-2 0 0 0 0-3-2 0 0 0 0-2-3 0 0 0 0-2-2 0 0 0 0-2-2-1 0 0-1-2-2 0 0 0 0-2-2 0 0 0-1-2-2 0 0 0 0-2-2-1 0 0-1-2-2 0 0 0 0-2-3 0 0 0 0-2-2 0 0 0 0-2-3 0 0 0 0-2-2 0 0 0-1-2-2-1 0 0 0-2-3 0 0 0 0-2-2 0 0 0-1-2-2 0 0 0 0-2-3 0 0 0 0-2-3 0 0 0 0-2-2 0-1 0 0-2-2 0 0 0 0-2-3 0 0 0 0-2-3 0 0 0 0-1-3 0 0-1 0-1-3 0 0 0 0-2-2-1-2 0 0 0 0-2-3 0 0 0 0-2-2 0-1 0 0-2-2 0 0 0 0-2-3 0 0 0 0-2-3 0 0 0 0-2-3 0 0 0 0-2-3 0 0 0 0-2-3 0 0 0 0-1-3 0 0 0 0-2-2 0-1 0 0-2-2 0 0 0-1-2-2 0 0 0 0-1-3 0 0 0 0-2-3 0 0 0 0-2-3 0 0 0 0-1-3 0 0 0 0-2-3 0 0 0 0-1-3 0 0 0 0-2-3 0 0 0 0-1-3 0 0 0 0-2-3 0 0 0 0-1-3 0 0 0 0-2-3 0 0 0 0 0-1-2-4 0-5 0-4 1-5 2-4 2-4 4-3 3-3 5-1 4-1 5-1 4 1 4 2 4 2 4 3 3 3 1 4 1 0 1 3 1 3 0 0 1 2 0 0 2 3 1 3 0 0 2 2 0 0 1 3 1 2 0 1 2 2 1 3 0 0 2 2 0 0 1 3 2 2 0 0 1 3 2 2 1 3 0 0 2 3 0 0 2 2 0 0 1 2 2 3 2 2 0 0 1 3 2 2 2 3 1 1 0 0 2 3 1 2 0 0 2 3 2 2 0 0 1 3 2 2 0 0 2 3 0 0 2 2 1 3 2 2 0 0 2 2 2 3 2 2 0 0 2 2 1 3 2 2 0 0 2 2 2 2 0 0 2 3 0 0 2 2 0 0 2 2 0 0 2 2 2 2 0 0 2 2 0 0 2 3 0 0 2 2 2 2 0 0 2 2 3 2 0 0 2 2 2 2 0 0 2 2 0 0 2 2 0 0 2 2 0 0 3 1 0 0 2 2 0 0 2 2 0 0 2 2 3 2 0 0 2 2 0 0 0 0 3 3 3 4 2 4 1 4 0 5 0 4-2 5-2 4-3 3-3 3-4 2-4 2-5 1z m694-313l-4-1-5-2-3-2-3-4-3-4-2-4-1-4 0-4 1-4 0-4 0-4 0-5 0-4 0 0 0-1 0-3 0-3 0 0 0-3 0 0 0-3 0-3 0 0 0-3 0 0 0-3 0-3 0-3 0-3 0-3-1-3 0-3 0 0 0-3 0 0 0-3-1-3 0-3 0-3-1-2 0-1 0-3 0 0 0-2-1-3 0-3 0 0-1-3 0-3-1-3 0 0 0-3-1-3-1-3 0 0 0-2-1-3 0 0 0-3-1-3 0 0-1-3-1-3 0 0 0-2 0 0-1-3 0 0-1-3 0 0-1-3 0 0-1-3-1-2 0 0 0-3-1-3 0 0-1-3 0 0-1-2 0-1-1-2 0 0-1-3 0 0-1-3-1-2 0 0-1-3-3-5-2-6-2-5-3-5-2-6-3-5-3-5-1-3-2-4-1-4 0-5 1-4 1-5 3-4 3-3 3-3 4-2 5-1 4-1 5 1 4 1 4 2 4 3 3 3 2 3 1 3 1 0 0 0 3 6 0 0 0 0 2 6 1 0 0 0 2 6 0 0 0 0 3 5 0 1 0 0 3 5 0 1 0 0 2 6 0 0 1 0 2 6 0 0 0 0 1 3 0 0 0 0 1 3 0 0 0 0 1 3 0 0 1 0 1 3 0 0 0 0 1 3 0 0 0 0 1 3 0 0 0 0 1 3 0 0 0 1 1 3 0 0 0 0 1 3 0 0 0 0 1 3 0 0 0 0 1 3 0 0 0 0 1 3 0 0 0 0 1 3 0 0 0 1 1 3 0 0 0 0 1 3 0 0 0 0 0 3 0 0 0 0 1 3 0 0 0 0 1 3 0 1 0 0 1 3 0 0 0 0 0 3 0 0 1 0 0 3 0 0 0 0 1 3 0 1 0 0 1 3 0 0 0 0 0 3 0 0 0 0 1 3 0 0 0 0 0 4 0 0 0 0 1 3 0 0 0 0 0 3 0 0 0 0 1 4 0 0 0 0 0 3 0 0 0 0 1 3 0 0 0 0 0 4 0 0 0 0 1 3 0 0 0 0 0 3 0 0 0 0 0 4 0 0 0 0 1 3 0 0 0 0 0 3 0 0 0 1 0 3 0 0 0 0 0 3 0 0 0 0 0 4 0 0 0 0 1 3 0 0 0 0 0 3 0 0 0 1 0 3 0 0 0 0 0 3 0 0 0 0 0 4 0 0 0 0 0 3 0 0 0 0 0 4 0 0 0 0 0 3 0 0 0 0 0 3 0 1 0 0 0 3 0 4 0 0 0 0 0 4 0 0 0 1 0 4 0 0 0 0-1 5 0 0 0 0 0 4 0 5-2 4-2 4-3 4-4 2-4 3-4 1-4 1z m-853-18l-4-1-5-2-3-3-4-3-2-4-2-4-1-4 0-4 0-3 0 0 0 0 0-7 0 0 0 0 0-6 0 0 0 0 0-7 0 0 0 0 1-6 0 0 0-1 0-6 0 0 0 0 1-6 0 0 0-1 1-6 0 0 0 0 1-6 0 0 0-1 0-6 0 0 0 0 1-6 0 0 0-1 1-6 1 0 0 0 1-6 0 0 0-1 1-6 0 0 0 0 1-6 0 0 0 0 2-6 0-1 0 0 1-6 0 0 0 0 2-6 0 0 0-1 2-6 0 0 0 0 1-6 0 0 0 0 2-6 0 0 0 0 2-6 0-1 0 0 2-6 0 0 0 0 2-6 0 0 0 0 2-6 1 0 0 0 2-6 0 0 0 0 2-6 0 0 0-1 3-5 0-1 0 0 2-5 0-1 0 0 3-5 0-1 0 0 2-5 0-1 1 0 2-5 0-1 0 0 3-5 0 0 0-1 1-1 2-4 4-4 3-2 4-2 5-1 4-1 5 1 4 1 4 2 4 3 3 3 2 4 2 5 0 4 0 5-1 4-1 4-1 1-3 5-2 6-3 5-2 6-2 5-2 5-3 6-2 6-2 5-1 6-2 5-2 6-2 6-1 5-2 6-1 6-2 5-1 6-1 6-1 6-1 6-1 5-1 6-1 6-1 6 0 6-1 5 0 6-1 6 0 6 0 6-1 6 0 3 0 4-1 5-3 4-2 3-4 3-4 3-4 1-4 1z m694-334l-4-1-4-2-4-3 0 0-5-3-4-4-5-4-5-3-5-3-4-4-5-3-5-3-5-3-5-4-5-3-6-3-5-2-5-3-5-3-5-3-6-2-5-3-5-2-6-2-5-3-6-2-5-2-6-2-5-2-6-2-5-2-6-1-5-2-6-2-6-1-5-1-5-1-4-2-4-2-4-3-2-3-3-4-1-5-1-4 1-5 1-4 2-4 2-4 3-3 4-3 4-1 5-1 4-1 4 1 5 1 0 0 0 0 6 2 0 0 0 0 6 1 1 0 0 0 6 2 0 0 0 0 6 2 0 0 0 0 6 2 0 0 1 0 5 2 1 0 0 0 6 2 0 0 0 0 6 2 0 0 0 0 6 2 0 0 0 0 6 3 0 0 0 0 6 2 0 0 1 0 5 3 0 0 1 0 5 2 0 0 1 0 5 3 0 0 1 0 5 3 0 0 1 0 5 3 0 0 0 0 6 3 0 0 0 0 6 3 0 0 0 0 6 3 0 0 0 0 5 3 0 0 1 0 5 3 0 0 0 0 6 3 0 1 0 0 5 3 0 0 1 0 5 3 0 0 0 1 5 3 0 0 1 0 5 4 0 0 0 0 5 3 0 0 0 0 6 4 0 0 0 0 5 4 0 0 0 0 5 4 0 0 0 0 5 4 0 0 1 0 4 4 1 0 0 0 0 1 3 3 3 4 2 4 1 4 0 5 0 4-2 4-2 4-3 4-4 3-4 2-4 1-4 1z m-541-2l-4-1-4-3-4-2-3-4-2-4-1-4-1-5 0-4 1-5 2-4 3-4 3-2 1-1 0-1 0 0 5-4 0 0 0 0 5-4 0 0 0 0 3-2 0 0 0 0 2-2 1 0 0 0 2-2 0 0 0 0 3-2 0 0 0 0 2-2 1 0 0 0 2-2 0 0 0 0 3-2 0 0 0 0 3-1 0-1 0 0 2-1 0 0 0 0 3-2 0 0 0 0 3-2 0 0 0 0 3-2 0 0 0 0 2-2 0 0 1 0 2-1 0 0 0 0 3-2 0 0 0 0 3-2 0 0 0 0 3-1 0 0 0-1 3-1 0 0 0 0 3-2 0 0 0 0 2-1 1 0 0 0 2-2 1 0 0 0 2-2 0 0 1 0 2-1 0 0 1 0 2-2 0 0 0 0 3-1 0 0 0 0 3-2 0 0 1 0 2-1 0 0 1 0 2-1 0-1 1 0 2-1 1 0 0 0 3-1 0 0 0 0 3-2 0 0 0 0 3-1 0 0 0 0 3-1 0 0 0 0 3-2 0 0 0 0 3-1 0 0 0 0 3-1 0 0 0 0 3-1 1 0 0 0 3-1 0 0 0 0 3-2 0 0 0 0 3-1 0 0 0 0 3-1 0 0 1 0 3-1 0 0 0 0 3-1 0 0 0 0 3-1 0 0 0 0 3-1 0 0 1 0 3-1 0 0 0 0 3-1 0 0 0 0 3-1 2 0 0 0 0 0 3-1 0 0 0-1 3-1 1 0 0 0 3-1 0 0 0 0 3-1 0 0 0 0 3-1 0 0 0 0 4 0 0-1 0 0 3 0 0 0 0 0 3-1 0 0 0 0 3-1 1 0 0 0 3-1 0 0 0 0 3-1 0 0 0 0 0 0 5 0 4 0 5 1 4 2 4 2 3 4 2 3 2 5 1 4 0 5 0 4-2 4-2 4-3 4-4 2-4 3-3 1 0 0-1 0-3 0-2 1 0 0-3 1 0 0-3 1 0 0-3 0 0 0-3 1-3 1-3 1 0 0-3 1-2 1-3 1-3 1-1 0-1 0-3 1-3 1-3 1 0 0-2 1-3 1-3 1-3 0-3 1 0 0-3 1-3 1-2 1 0 0-3 2-3 1 0 0-3 1 0 0-2 1-3 1 0 0-3 1-3 1-2 2-3 1 0 0-3 1-2 1-3 2-3 1-2 1 0 0-3 2-2 1 0 0-3 1 0 0-3 2 0 0-2 1-2 2-1 0-2 1 0 0-3 2-2 1 0 0-3 2-2 1 0 0-3 2 0 0-2 2 0 0-2 1-3 2 0 0-2 2-2 1-1 0-2 2 0 0-2 2-3 1 0 0-2 2 0 0-2 2 0 0-3 2-4 3-5 4-1 1-4 3-4 1-4 2-5 0z" horiz-adv-x="1000" />

<glyph glyph-name="sequential-mi-marker" unicode="&#xe816;" d="M200 600l0-100 600 0 0 100-600 0z m0-200l0-100 600 0 0 100-600 0z m0-200l0-100 600 0 0 100-600 0z" horiz-adv-x="1000" />

<glyph glyph-name="user-task" unicode="&#xe817;" d="M328 611c-51 0-87-39-88-84l0 0 0 0c0-13 4-27 10-40 4-10 9-18 15-25-37-13-80-33-102-75l-1-2 0-133 332 0 0 133-1 2c-22 41-64 62-101 75 18 18 23 41 23 65l0 0 0 0c0 45-36 84-87 84z m-35-47c3 0 5-1 8-1 23-1 30-5 36-9 6-4 10-8 26-8l0 0 0 0c12 0 18 3 22 5 1 1 3 2 4 3 4-8 6-17 6-27 0-27-4-45-29-61l2-18c6-1 11-3 16-5 1-3 2-7 2-12 1-4 1-9 1-13 0-3-2-5-2-5-12-13-34-20-57-20-23 0-45 7-57 20 0 0-2 2-2 5 0 4 0 9 1 13 0 5 1 9 2 12 5 2 10 4 15 5l2 20c-1 1-3 2-4 3-5 4-12 13-17 24-4 10-7 23-7 32 0 12 3 23 8 33 2 0 3 0 4 1 4 1 10 3 20 3z m-43-130c0 0 0 0 0 0-1-6-2-12-1-18 1-6 2-12 8-17 17-18 44-26 71-26 27 0 54 8 71 26 6 5 7 11 8 17 1 6 0 12-1 18 0 0 0 0 0 0 27-12 54-29 68-54l0-108-48 0 0 76-20 0 0-76-156 0 0 76-21 0 0-76-47 0 0 108c14 25 41 43 68 54z m-35 311c-107 0-195-87-195-194l0-402c0-107 88-194 195-194l570 0c108 0 195 87 195 194l0 402c0 107-87 194-195 194l-570 0z m0-60l570 0c75 0 135-59 135-134l0-402c0-75-60-134-135-134l-570 0c-75 0-135 59-135 134l0 402c0 75 60 134 135 134z" horiz-adv-x="1000" />

<glyph glyph-name="business-rule" unicode="&#xe818;" d="M89 659l0-617 822 0 0 617-822 0z m35-209l159 0 0-173-159 0 0 173z m194 0l558 0 0-173-558 0 0 173z m-194-208l159 0 0-165-159 0 0 165z m194 0l558 0 0-165-558 0 0 165z" horiz-adv-x="1000" />

<glyph glyph-name="sub-process-marker" unicode="&#xe819;" d="M150 700l0-25 0-675 700 0 0 700z m44-44l612 0 0-612-612 0z m261-106l0-155-155 0 0-90 155 0 0-155 90 0 0 155 155 0 0 90-155 0 0 155z" horiz-adv-x="1000" />

<glyph glyph-name="start-event-parallel-multiple" unicode="&#xe81a;" d="M496 802c-176 0-345-113-412-276-70-161-34-362 89-487 119-128 314-175 477-115 169 58 294 224 301 403 12 176-92 351-250 428-62 31-132 47-201 47-1 0-3 0-4 0z m12-49c173-1 335-126 380-293 47-159-17-344-155-439-143-105-354-97-489 18-136 108-185 309-115 468 60 147 212 248 371 246 3 0 6 0 8 0z m-78-208l0-125-125 0 0-140 125 0 0-125 140 0 0 125 125 0 0 140-125 0 0 125-140 0z m23-23l94 0 0-125 125 0 0-94-125 0 0-125-94 0 0 126-125 0 0 93 125 0 0 125z" horiz-adv-x="1000" />

<glyph glyph-name="start-event-error" unicode="&#xe81b;" d="M500 802c-178 2-349-112-416-276-70-161-34-362 89-487 119-128 314-175 477-115 169 58 294 224 301 403 12 176-92 351-250 428-62 31-132 47-201 47z m0-49c175 3 342-123 388-293 47-159-17-344-155-439-143-105-354-97-489 18-136 109-185 309-115 468 60 147 212 248 371 246z m173-210c-34-70-68-139-102-209-43 56-86 111-128 166-39-114-77-228-116-342 43 55 87 111 130 167 45-51 89-103 134-154 27 124 55 248 82 372z m-219-110c41-52 81-103 122-154 10 22 20 45 30 67-10-39-19-78-29-116-41 48-83 97-124 145-17-26-34-52-50-77 17 45 34 90 51 135z" horiz-adv-x="1000" />

<glyph glyph-name="intermediate-event-catch-signal" unicode="&#xe81c;" d="M499 802c-220 4-425-177-448-396-24-185 78-380 247-461 160-80 368-56 501 66 134 118 190 318 128 486-57 167-217 293-393 303-12 1-23 2-35 2z m-5-49c202 7 391-161 407-362 19-178-92-361-262-420-166-61-368-2-468 145-103 144-99 356 18 490 74 90 188 146 305 147z m8-44c-186 6-358-158-361-344-9-169 116-334 283-367 155-33 328 46 397 190 71 140 39 327-83 430-64 57-150 91-236 91z m-2-48c164 4 314-144 311-308 3-152-119-297-272-312-143-19-295 73-336 213-43 134 14 295 138 364 48 28 103 43 159 43z m0-99c-64-115-128-230-192-345 128 0 256 0 384 0-64 115-128 230-192 345z m0-51c50-90 100-180 151-270-101 0-201 0-302 0 51 90 101 180 151 270z" horiz-adv-x="1000" />

<glyph glyph-name="intermediate-event-catch-error" unicode="&#xe81d;" d="M499 802c-220 4-425-177-448-396-24-185 78-380 247-461 160-80 368-56 501 66 134 118 190 318 128 486-57 167-217 293-393 303-12 1-23 2-35 2z m-5-49c202 7 391-161 407-362 19-178-92-361-262-420-166-61-368-2-468 145-103 144-99 356 18 490 74 90 188 146 305 147z m8-44c-186 6-358-158-361-344-9-169 116-334 283-367 155-33 328 46 397 190 71 140 39 327-83 430-64 57-150 91-236 91z m-2-48c164 4 314-144 311-308 3-152-119-297-272-312-143-19-295 73-336 213-43 134 14 295 138 364 48 28 103 43 159 43z m173-118c-34-70-68-139-102-209-43 56-86 111-128 166-39-114-77-228-116-342 43 55 87 111 130 167 45-51 89-103 134-154 27 124 55 248 82 372z m-219-110c41-52 81-103 122-154 10 22 20 45 30 67-10-39-19-78-29-116-41 48-83 97-124 145-17-26-34-51-50-77 17 45 34 90 51 135z" horiz-adv-x="1000" />

<glyph glyph-name="end-event-compensation" unicode="&#xe81e;" d="M491 802c-219 0-420-183-440-400-22-186 82-380 253-459 158-77 361-53 492 67 134 115 192 312 133 480-55 172-220 303-401 311-13 1-25 1-37 1z m9-142c161 5 308-137 310-298 7-147-103-292-250-317-142-28-300 54-350 192-53 136 2 309 132 380 47 28 103 43 158 43z m-16-162c-70-49-140-99-209-148 70-49 139-99 209-148 0 48 0 95 0 143 67-48 135-95 202-143 0 99 0 197 0 296-67-48-135-95-202-143 0 48 0 95 0 143z" horiz-adv-x="1000" />

<glyph glyph-name="subprocess-collapsed" unicode="&#xe81f;" d="M216 716c-86 0-155-69-155-154l0-424c0-85 69-154 155-154l569 0c85 0 154 69 154 154l0 424c0 85-69 154-154 154l-569 0z m0-48l569 0c59 0 106-47 106-106l0-424c0-59-47-106-106-106l-116 0 0 308-338 0 0-15 0-293-115 0c-60 0-106 47-106 106l0 424c0 59 46 106 106 106z m146-359l276 0 0-276-276 0 0 276z m115-39l0-23 0-54-54 0-23 0 0-46 23 0 54 0 0-54 0-23 46 0 0 23 0 54 54 0 23 0 0 46-23 0-54 0 0 54 0 23-46 0z" horiz-adv-x="1000" />

<glyph glyph-name="subprocess-expanded" unicode="&#xe820;" d="M215 716c-85 0-154-69-154-154l0-424c0-85 69-154 154-154l570 0c85 0 154 69 154 154l0 424c0 85-69 154-154 154l-570 0z m0-48l570 0c59 0 106-47 106-106l0-424c0-59-47-106-106-106l-116 0 0 292 0 16-15 0-308 0-15 0 0-16 0-292-116 0c-59 0-105 47-105 106l0 424c0 59 46 106 105 106z m147-359l276 0 0-277-276 0 0 277z m37-110l0-47 203 0 0 47-203 0z" horiz-adv-x="1000" />

<glyph glyph-name="task" unicode="&#xe821;" d="M215 716c-85 0-154-69-154-154l0-424c0-85 69-154 154-154l570 0c85 0 154 69 154 154l0 424c0 85-69 154-154 154l-570 0z m0-48l570 0c59 0 106-47 106-106l0-424c0-59-47-106-106-106l-570 0c-59 0-105 47-105 106l0 424c0 59 46 106 105 106z" horiz-adv-x="1000" />

<glyph glyph-name="end-event-error" unicode="&#xe822;" d="M491 802c-219 0-420-183-440-400-22-186 82-380 253-459 158-77 361-53 492 67 134 115 192 312 133 480-55 172-220 303-401 311-13 1-25 1-37 1z m9-142c161 5 308-137 310-298 7-147-103-292-250-317-142-28-300 54-350 192-53 136 2 309 132 380 47 28 103 43 158 43z m173-117c-34-70-68-139-102-209-43 56-86 111-128 166-39-114-77-228-116-342 43 55 87 111 130 167 45-51 89-103 134-154 27 124 55 248 82 372z" horiz-adv-x="1000" />

<glyph glyph-name="intermediate-event-catch-escalation" unicode="&#xe823;" d="M499 802c-220 4-425-177-448-396-24-185 78-380 247-461 160-80 368-56 501 66 134 118 190 318 128 486-57 167-217 293-393 303-12 1-23 2-35 2z m-5-49c202 7 391-161 407-362 19-178-92-361-262-420-166-61-368-2-468 145-103 144-99 356 18 490 74 90 188 146 305 147z m8-44c-186 6-358-158-361-344-9-169 116-334 283-367 155-33 328 46 397 190 71 140 39 327-83 430-64 57-150 91-236 91z m-2-48c164 4 314-144 311-308 3-152-119-297-272-312-143-19-295 73-336 213-43 134 14 295 138 364 48 28 103 43 159 43z m0-111c-47-131-77-268-124-400 43 43 81 91 124 135 42-45 83-90 125-135-43 133-83 267-125 400z m1-83c23-73 45-146 68-219-22 24-45 49-68 74-19-17-69-82-66-68 24 70 41 143 66 213z" horiz-adv-x="1000" />

<glyph glyph-name="intermediate-event-catch-timer" unicode="&#xe824;" d="M499 802c-1 0-2 0-3 0-202 1-391-150-436-346-42-173 28-368 174-471 145-107 354-116 506-18 149 93 235 276 207 450-26 176-164 330-338 371-36 9-73 14-110 14z m-5-49c3 0 7 0 10 0 187 2 362-146 392-331 32-167-54-348-205-427-154-85-363-54-483 77-124 127-147 338-53 488 71 116 203 192 339 193z m8-44c-3 0-7 0-10 0-172 0-330-143-349-314-22-161 79-328 233-382 145-55 322-3 413 124 98 129 92 326-17 447-67 77-167 125-270 125z m-2-48c2 0 4 0 6 0 153 0 292-129 304-281 16-145-84-293-225-330-137-40-296 27-361 154-69 129-33 305 86 392 54 42 122 65 190 65z m-4-97c-84 0-164-55-194-133-33-76-15-170 43-229 56-60 149-82 226-54 81 28 141 108 143 194 5 83-46 166-121 201-29 14-61 21-93 21-1 0-3 0-4 0z m8-39c76 0 148-57 166-131 20-73-14-156-79-194-67-42-160-31-215 26-58 56-68 152-24 219 32 49 89 81 148 80 1 0 2 0 4 0z m51-49c-19-36-39-71-58-107-18-2-23-29-6-36 11-8 20 5 30 4l89 0 0 25-89 0c18 34 37 68 56 102-7 4-14 8-22 12z" horiz-adv-x="1000" />

<glyph glyph-name="start-event-escalation" unicode="&#xe825;" d="M500 802c-178 2-349-112-416-276-70-161-34-362 89-487 119-128 314-175 477-115 169 58 294 224 301 403 12 176-92 351-250 428-62 31-132 47-201 47z m0-49c175 3 342-123 388-293 47-159-17-344-155-439-143-105-354-97-489 18-136 109-185 309-115 468 60 147 212 248 371 246z m0-203c-47-131-77-268-124-400 43 43 81 91 124 135 42-45 83-90 125-135-43 133-83 267-125 400z m1-83c23-73 45-146 68-219-22 24-45 49-68 74-19-17-69-82-66-68 24 70 41 143 66 213z" horiz-adv-x="1000" />

<glyph glyph-name="start-event-signal" unicode="&#xe826;" d="M500 802c-178 2-349-112-416-276-70-161-34-362 89-487 119-128 314-175 477-115 169 58 294 224 301 403 12 176-92 351-250 428-62 31-132 47-201 47z m0-49c175 3 342-123 388-293 47-159-17-344-155-439-143-105-354-97-489 18-136 109-185 309-115 468 60 147 212 248 371 246z m0-191c-64-115-128-230-192-345 128 0 256 0 384 0-64 115-128 230-192 345z m0-51c50-90 100-180 151-270-101 0-201 0-302 0 51 90 101 180 151 270z" horiz-adv-x="1000" />

<glyph glyph-name="business-rule-task" unicode="&#xe827;" d="M215 745c-107 0-195-87-195-194l0-402c0-107 88-194 195-194l570 0c108 0 195 87 195 194l0 402c0 107-87 194-195 194l-570 0z m0-60l570 0c75 0 135-59 135-134l0-402c0-75-60-134-135-134l-570 0c-75 0-135 59-135 134l0 402c0 75 60 134 135 134z m-36-72l0-380 506 0 0 380-506 0z m21-131l463 0 0-104-343 0 0 103-22 0 0-103-98 0 0 104z m0-125l98 0 0-102-98 0 0 102z m120 0l343 0 0-102-343 0 0 102z m-118 232l0-108 461 0 0 108z" horiz-adv-x="1000" />

<glyph glyph-name="manual" unicode="&#xe828;" d="M460 659c-11 0-22-5-31-10l0 0 0 0c-47-31-209-143-245-168l0 0 0 0c-32-22-54-55-66-95l0 0 0 0c-13-41-11-86-11-124l0 0 0 0c0-28 1-53 8-83 0 0 0 0 0 0 11-44 31-75 61-95 29-19 65-26 105-26 147-1 293-1 439 0l0 0 0 0c16 0 31 6 41 18 10 12 14 28 14 45 0 11-2 22-5 32l16 0c16 0 30 4 40 14 11 9 16 22 19 35l0 0c4 19 2 38-6 53 17 2 31 8 41 19 10 13 13 29 13 47 0 18-4 35-14 49-10 13-27 23-46 23l0 0 0 0c-7 0-13 0-21 0 4 9 6 19 6 31l0 0 0 0c0 17-5 35-15 48-10 14-27 23-46 23-112 0-223-1-317-1 5 5 9 10 15 15 16 17 31 32 39 42 20 25 23 59 6 83-8 13-21 22-34 24-2 0-4 1-5 1l0 0c-1 0-1 0-1 0z m0-35c0 0 1 0 1-1 3 0 6-1 10-8l0 0 0 0c6-9 6-29-4-42l0 0 0 0c-4-5-21-23-37-39-16-16-32-31-39-40-8-9-5-16-3-21 2-5 4-10 14-12 3-1 4-1 5-1 0 0 1 0 3 0 2 0 5 0 9 0 113-1 225 0 338 0l0 0 0 0c9 0 13-3 18-9 4-6 8-16 8-28 0-12-3-19-7-24-3-4-8-6-19-6l-242 0 0-35 242 0 0 0c34 0 51 0 76 0 9 0 13-3 18-9 4-6 7-16 7-28l0 0c0-13-2-21-5-24-3-4-8-7-20-7-4 0-34 0-47 0 0 0 0 0-1 0-90 0-180 0-270 0l0 0 0-35 0 0c0 0 191 0 271 0 10 0 15-4 20-12 5-8 7-20 5-34l0 0 0 0c-2-9-5-14-8-17-3-2-7-4-17-4-90 0-181 0-271 0l0 0 0-35 0 0 205 0 0 0c7 0 10-2 14-7 3-4 6-13 6-25l0 0 0 0c0-11-3-19-6-23-3-4-6-5-14-5-146-1-292-1-438 0l0 0 0 0c-37 0-66 6-87 20-21 14-37 37-46 74l0 1 0 0c-6 26-7 47-7 74l0 0c0 39-1 80 9 114 11 34 28 59 53 76l0 0c36 25 199 138 244 167l0 0c5 3 8 4 11 4 0 1 1 1 1 1z" horiz-adv-x="1000" />

<glyph glyph-name="receive" unicode="&#xe829;" d="M95 618l0-535 811 0 0 535-811 0z m83-35l644 0-322-212-322 212z m-48-10l370-244 371 244 0-455-741 0 0 455z" horiz-adv-x="1000" />

<glyph glyph-name="call-activity" unicode="&#xe82a;" d="M231 745c-116 0-211-93-211-208l0-374c0-115 95-208 211-208l538 0c116 0 211 93 211 208l0 374c0 115-95 208-211 208l-538 0z m0-110l538 0c58 0 101-43 101-98l0-374c0-55-43-98-101-98l-538 0c-58 0-101 43-101 98l0 374c0 55 43 98 101 98z" horiz-adv-x="1000" />

<glyph glyph-name="start-event-timer" unicode="&#xe82b;" d="M500 802c-249 0-452-203-452-452 0-249 203-452 452-452 249 0 452 203 452 452 0 249-203 452-452 452z m0-49c223 0 403-180 403-403 0-223-180-403-403-403-223 0-403 180-403 403 0 223 180 403 403 403z m-4-189c-84 0-164-55-194-133-33-76-15-170 43-229 56-60 149-82 226-54 81 28 141 108 143 194 5 83-46 166-121 201-29 14-61 21-93 21-1 0-3 0-4 0z m8-39c76 0 148-57 166-131 20-73-14-156-79-194-67-42-160-31-215 26-58 56-68 152-24 219 32 49 89 81 148 80 1 0 2 0 4 0z m51-49c-19-36-39-71-58-107-18-2-23-29-6-36 11-8 20 5 30 4l89 0 0 25-89 0c18 34 37 68 56 102-7 4-14 8-22 12z" horiz-adv-x="1000" />

<glyph glyph-name="start-event-message" unicode="&#xe82c;" d="M500 802c-178 2-349-112-416-276-70-161-34-362 89-487 119-128 314-175 477-115 169 58 294 224 301 403 12 176-92 351-250 428-62 31-132 47-201 47z m0-49c175 3 342-123 388-293 47-159-17-344-155-439-143-105-354-97-489 18-136 109-185 309-115 468 60 147 212 248 371 246z m-205-247c0-104 0-208 0-312 137 0 273 0 410 0 0 104 0 208 0 312-137 0-273 0-410 0z m91-49c76 0 152 0 228 0-40-24-81-79-121-85-36 29-71 57-107 85z m270-28c0-62 0-124 0-186-104 0-208 0-312 0 0 62 0 124 0 186 52-42 104-83 156-125 52 42 104 83 156 125z" horiz-adv-x="1000" />

<glyph glyph-name="intermediate-event-none" unicode="&#xe82d;" d="M496 802c-219 2-422-178-445-396-24-185 78-380 247-461 160-80 368-56 501 66 134 118 190 318 128 486-57 165-214 291-388 303-15 1-29 2-43 2z m8-49c201 3 386-169 398-370 16-178-100-360-271-415-164-56-362 4-460 148-103 144-99 357 19 491 76 92 194 149 314 146z m-12-44c-185 0-352-166-352-352-4-168 124-331 291-360 153-30 322 49 390 191 71 141 39 329-84 431-67 59-156 92-245 90z m14-48c165 1 312-150 305-315 0-150-121-290-272-305-143-19-295 73-336 213-43 134 14 296 139 364 50 29 107 44 164 43z" horiz-adv-x="1000" />

<glyph glyph-name="intermediate-event-catch-link" unicode="&#xe82e;" d="M499 802c-220 4-425-177-448-396-24-185 78-380 247-461 160-80 368-56 501 66 134 118 190 318 128 486-57 167-217 293-393 303-12 1-23 2-35 2z m-5-49c202 7 391-161 407-362 19-178-92-361-262-420-166-61-368-2-468 145-103 144-99 356 18 490 74 90 188 146 305 147z m8-44c-186 6-358-158-361-344-9-169 116-334 283-367 155-33 328 46 397 190 71 140 39 327-83 430-64 57-150 91-236 91z m-2-48c164 4 314-144 311-308 3-152-119-297-272-312-143-19-295 73-336 213-43 134 14 295 138 364 48 28 103 43 159 43z m50-116c0-33 0-67 0-100-75 0-150 0-226 0 0-63 0-127 0-190 76 0 151 0 226 0 0-33 0-67 0-100 55 65 110 130 165 195-55 65-110 130-165 195z m28-73c34-40 68-81 102-121-34-40-68-81-102-121 0 18 0 36 0 54-75 0-149 0-223 0 0 44 0 89 0 133 74 0 148 0 223 0 0 18 0 37 0 55z" horiz-adv-x="1000" />

<glyph glyph-name="end-event-escalation" unicode="&#xe82f;" d="M491 802c-219 0-420-183-440-400-22-186 82-380 253-459 158-77 361-53 492 67 134 115 192 312 133 480-55 172-220 303-401 311-13 1-25 1-37 1z m9-142c161 5 308-137 310-298 7-147-103-292-250-317-142-28-300 54-350 192-53 136 2 309 132 380 47 28 103 43 158 43z m0-110c-47-131-77-268-124-400 43 43 81 91 124 135 42-45 83-90 125-135-43 133-83 267-125 400z" horiz-adv-x="1000" />

<glyph glyph-name="text-annotation" unicode="&#xe830;" d="M677 795l0-25 0-411 0-412 0-24 24 0 224 0 25 0 0 49-25 0-199 0 0 387 0 386 199 0 25 0 0 50-25 0-224 0-24 0z m-81-386l-75-60 60-75 75 60-60 75z m-151-119l-75-60 60-75 75 59-60 76z m-150-120l-76-59 60-76 75 60-59 75z m-151-119l-76-60 60-75 76 59-60 76z" horiz-adv-x="1000" />

<glyph glyph-name="bpmn-io" unicode="&#xe831;" d="M674 41h-348v-191h348z m-348 809v-714h176c114 0 171 57 171 166v58c0 76-23 133-81 157 48 24 67 71 67 143v28c0 105-48 162-162 162z m114-100h57c43 0 57-24 57-76v-38c0-57-23-76-66-76h-48z m-5-300h53c47 0 71-19 71-86v-62c0-52-19-71-57-71h-67z" horiz-adv-x="1000" />

<glyph glyph-name="gateway-complex" unicode="&#xe832;" d="M500 802c-9 0-19-4-26-11l-415-415c-14-14-14-38 0-52l415-415c14-14 38-14 52 0l415 415c14 14 14 38 0 52l-415 415c-7 7-17 11-26 11z m0-62l390-390-390-390-390 390 390 390z m-9-192l0 0c0 0-4-1-4-1 0 0-4-2-4-2 0 0-2-3-2-3 0 0-1-4-1-4l0-140-99 99 0 0c0 0-3 2-3 2 0 0-4 1-4 1 0 0-4-1-4-1 0 0-4-2-4-2l-13-13c0 0-2-4-2-4 0 0-1-4-1-4 0 0 1-4 1-4 0 0 2-3 2-3l99-99-140 0 0 0c0 0-4-1-4-1 0 0-3-2-3-2l0 0c0 0-2-4-2-4 0 0-1-4-1-4l0-18c0 0 1-4 1-4 0 0 2-4 2-4 0 0 3-2 3-2 0 0 4-1 4-1l140 0-99-99 0 0c0 0-2-3-2-3 0 0-1-4-1-4 0 0 1-4 1-4 0 0 2-4 2-4l13-13c0 0 4-2 4-2 0 0 4-1 4-1 0 0 4 1 4 1 0 0 3 2 3 2l99 99 0-140 0 0c0 0 1-4 1-4 0 0 2-3 2-3 0 0 4-2 4-2 0 0 4-1 4-1l18 0c0 0 4 1 4 1 0 0 4 2 4 2 0 0 2 3 2 3 0 0 1 4 1 4l0 140 99-99c0 0 3-2 3-2 0 0 4-1 4-1 0 0 4 1 4 1 0 0 4 2 4 2l13 13c0 0 2 4 2 4 0 0 1 4 1 4 0 0-1 4-1 4 0 0-2 4-2 4l-99 98 140 0c0 0 4 1 4 1 0 0 3 2 3 2 0 0 3 4 3 4 0 0 0 4 0 4l0 18c0 0 0 4 0 4 0 0-3 4-3 4 0 0-3 2-3 2 0 0-4 1-4 1l-140 0 99 99c0 0 2 3 2 3 0 0 1 4 1 4 0 0-1 4-1 4 0 0-2 4-2 4l-13 13c0 0-4 2-4 2 0 0-4 1-4 1 0 0-4-1-4-1 0 0-3-2-3-2l-99-99 0 140c0 0-1 4-1 4 0 0-2 3-2 3 0 0-4 3-4 3 0 0-4 0-4 0l-18 0z m-117-48c0 0 0 0 0 0l0 0c0 0 0 0 0 0z" horiz-adv-x="1000" />

<glyph glyph-name="gateway-eventbased" unicode="&#xe833;" d="M500 802c-9 0-19-4-26-11l-415-415c-14-14-14-38 0-52l415-415c14-14 38-14 52 0l415 415c14 14 14 38 0 52l-415 415c-7 7-17 11-26 11z m0-62l390-390-390-390-390 390 390 390z m0-166l-7-5-208-151 82-253 266 0 82 253-215 156z m0-30l187-135-72-220-230 0-72 220 187 135z" horiz-adv-x="1000" />

<glyph glyph-name="gateway-none" unicode="&#xe834;" d="M59 376c-14-14-14-38 0-52l415-415c14-14 38-14 52 0l415 415c14 14 14 38 0 52l-415 415c-14 14-38 14-52 0l-415-415z m51-26l390 390 390-390-390-390-390 390z" horiz-adv-x="1000" />

<glyph glyph-name="gateway-or" unicode="&#xe835;" d="M500 802c-9 0-19-4-26-11l-415-415c-14-14-14-38 0-52l415-415c14-14 38-14 52 0l415 415c14 14 14 38 0 52l-415 415c-7 7-17 11-26 11z m0-62l390-390-390-390-390 390 390 390z m0-180c-116 0-210-94-210-210 0-116 94-210 210-210 116 0 210 94 210 210 0 116-94 210-210 210z m0-23c103 0 187-84 187-187 0-103-84-187-187-187-103 0-187 84-187 187 0 103 84 187 187 187z" horiz-adv-x="1000" />

<glyph glyph-name="end-event-terminate" unicode="&#xe836;" d="M491 802c-219 0-420-183-440-400-22-186 82-380 253-459 158-77 361-53 492 67 134 115 192 312 133 480-55 172-220 303-401 311-13 1-25 1-37 1z m9-142c161 5 308-137 310-298 7-147-103-292-250-317-142-28-300 54-350 192-53 136 2 309 132 380 47 28 103 43 158 43z m0-81c-149 6-268-156-219-297 38-143 229-210 349-121 126 79 133 281 13 369-40 32-92 50-143 49z" horiz-adv-x="1000" />

<glyph glyph-name="end-event-signal" unicode="&#xe837;" d="M491 802c-219 0-420-183-440-400-22-186 82-380 253-459 158-77 361-53 492 67 134 115 192 312 133 480-55 172-220 303-401 311-13 1-25 1-37 1z m9-142c161 5 308-137 310-298 7-147-103-292-250-317-142-28-300 54-350 192-53 136 2 309 132 380 47 28 103 43 158 43z m0-98c-64-115-128-230-192-345 128 0 256 0 384 0-64 115-128 230-192 345z" horiz-adv-x="1000" />

<glyph glyph-name="end-event-none" unicode="&#xe838;" d="M496 802c-203 1-394-153-437-351-41-174 33-368 181-470 143-103 348-111 497-15 150 91 238 275 210 449-26 181-170 339-350 376-33 7-67 11-101 11z m10-142c150 1 287-123 302-271 19-142-72-291-210-334-134-45-296 13-366 138-77 129-45 313 78 403 56 43 126 66 196 64z" horiz-adv-x="1000" />

<glyph glyph-name="end-event-multiple" unicode="&#xe839;" d="M491 802c-219-1-420-183-440-401-22-185 82-379 252-458 159-77 362-53 493 66 134 116 192 313 133 481-55 171-220 303-401 311-13 0-25 1-37 1z m9-142c161 5 308-137 310-298 7-148-104-292-250-317-142-28-300 54-350 192-53 136 1 308 132 380 47 28 102 43 158 43z m0-86c-72-52-143-104-215-156 27-84 55-169 82-253 89 0 177 0 266 0 28 84 55 169 82 253-71 52-143 104-215 156z" horiz-adv-x="1000" />

<glyph glyph-name="end-event-message" unicode="&#xe83a;" d="M491 802c-219 0-420-183-440-400-22-186 82-380 253-459 158-77 361-53 492 67 134 115 192 312 133 480-55 172-220 303-401 311-13 1-25 1-37 1z m9-142c161 5 308-137 310-298 7-147-103-292-250-317-142-28-300 54-350 192-53 136 2 309 132 380 47 28 103 43 158 43z m-167-154c57-46 114-92 171-138 56 46 113 92 170 138-114 0-227 0-341 0z m-38-32c0-93 0-187 0-280 137 0 273 0 410 0 0 91 0 183 0 274-67-54-134-109-201-163-70 56-139 113-209 169z" horiz-adv-x="1000" />

<glyph glyph-name="end-event-link" unicode="&#xe83b;" d="M491 802c-219 0-420-183-440-400-22-186 82-380 253-459 158-77 361-53 492 67 134 115 192 312 133 480-55 172-220 303-401 311-13 1-25 1-37 1z m9-142c161 5 308-137 310-298 7-147-103-292-250-317-142-28-300 54-350 192-53 136 2 309 132 380 47 28 103 43 158 43z m50-115c0-33 0-67 0-100-75 0-150 0-226 0 0-63 0-127 0-190 76 0 151 0 226 0 0-33 0-67 0-100 55 65 110 130 165 195-55 65-110 130-165 195z" horiz-adv-x="1000" />

<glyph glyph-name="intermediate-event-catch-message" unicode="&#xe83c;" d="M499 802c-220 4-425-177-448-396-24-185 78-380 247-461 160-80 368-56 501 66 134 118 190 318 128 486-57 167-217 293-393 303-12 1-23 2-35 2z m-5-49c202 7 391-161 407-362 19-178-92-361-262-420-166-61-368-2-468 145-103 144-99 356 18 490 74 90 188 146 305 147z m8-44c-186 6-358-158-361-344-9-169 116-334 283-367 155-33 328 46 397 190 71 140 39 327-83 430-64 57-150 91-236 91z m-2-48c164 4 314-144 311-308 3-152-119-297-272-312-143-19-295 73-336 213-43 134 14 295 138 364 48 28 103 43 159 43z m-205-155c0-104 0-208 0-312 137 0 273 0 410 0 0 104 0 208 0 312-137 0-273 0-410 0z m91-49c76 0 152 0 228 0-40-24-81-79-121-85-36 29-71 57-107 85z m270-28c0-62 0-124 0-186-104 0-208 0-312 0 0 62 0 124 0 186 52-42 104-83 156-125 52 42 104 83 156 125z" horiz-adv-x="1000" />

<glyph glyph-name="intermediate-event-throw-compensation" unicode="&#xe83d;" d="M499 802c-220 4-425-177-448-396-24-185 78-380 247-461 160-80 368-56 501 66 134 118 190 318 128 486-57 167-217 293-393 303-12 1-23 2-35 2z m-5-49c202 7 391-161 407-362 19-178-92-361-262-420-166-61-368-2-468 145-103 144-99 356 18 490 74 90 188 146 305 147z m8-44c-186 6-358-158-361-344-9-169 116-334 283-367 155-33 328 46 397 190 71 140 39 327-83 430-64 57-150 91-236 91z m-2-48c164 4 314-144 311-308 3-152-119-297-272-312-143-19-295 73-336 213-43 134 14 295 138 364 48 28 103 43 159 43z m-16-163c-70-49-140-99-209-148 70-49 139-99 209-148 0 48 0 95 0 143 67-48 135-95 202-143 0 99 0 197 0 296-67-48-135-95-202-143 0 48 0 95 0 143z" horiz-adv-x="1000" />

<glyph glyph-name="start-event-multiple" unicode="&#xe83e;" d="M500 802c-178 2-349-112-416-276-70-161-34-362 89-487 119-128 314-175 477-115 169 58 294 224 301 403 12 176-92 351-250 428-62 31-132 47-201 47z m0-49c175 3 342-123 388-293 47-159-17-344-155-439-143-105-354-97-489 18-136 109-185 309-115 468 60 147 212 248 371 246z m0-179c-72-52-143-104-215-156 27-84 55-169 82-253 89 0 177 0 266 0 28 84 55 169 82 253-71 52-143 104-215 156z m0-30c62-45 124-90 187-135-24-74-48-147-72-220-77 0-153 0-230 0-24 73-48 146-72 220 63 45 125 90 187 135z" horiz-adv-x="1000" />

<glyph glyph-name="script" unicode="&#xe83f;" d="M380 661l-4-2-2-1c-58-35-98-67-125-98-26-31-39-62-40-92 0-60 44-105 83-145 39-40 74-78 78-109 1-16-3-32-20-54-17-22-49-48-99-78l-74-43 458 0 5 3 1 0c53 31 89 60 112 89 23 29 32 59 29 88-6 56-52 97-90 137-39 39-70 76-70 112 0 17 7 37 29 62 21 25 57 55 113 88l0 0 73 43-457 0z m13-46l282 0c-25-19-45-37-60-55-26-31-39-62-39-92-1-60 43-105 82-145 39-40 74-78 78-109 1-16-2-32-20-54-16-21-47-46-94-74l-283 0c20 15 36 30 47 45 23 29 33 59 30 88-6 56-52 97-91 137-38 39-70 76-69 112 0 17 7 37 28 62 21 25 56 53 109 85z m-66-80l0-21 220 0 0 21-220 0z m-9-115l0-22 229 0 0 22-229 0z m104-116l0-21 221 0 0 21-221 0z m31-115l0-22 229 0 0 22-229 0z" horiz-adv-x="1000" />

<glyph glyph-name="manual-task" unicode="&#xe840;" d="M215 745c-107 0-195-87-195-194l0-402c0-107 88-194 195-194l570 0c108 0 195 87 195 194l0 402c0 107-87 194-195 194l-570 0z m0-60l570 0c75 0 135-59 135-134l0-402c0-75-60-134-135-134l-570 0c-75 0-135 59-135 134l0 402c0 75 60 134 135 134z m133-40c-7 0-13-2-18-6l0 0 0 0c-30-19-131-89-153-104l0 0 0 0c-20-14-34-35-42-60l0 0 0 0c-8-25-7-53-7-77l0 0 0 0c0-18 1-33 5-52 0 0 0 0 0 0 7-27 19-49 37-63 18-15 41-22 67-22 91-1 183-1 274 0l0 0 0 0c10 0 19 3 25 11 6 7 9 17 9 27 0 7-1 13-3 19l10 0c10 0 19 3 25 9 7 7 10 15 12 23 0 0 0 0 0 0 2 12 1 24-4 34 11 1 21 8 26 16 6 9 8 20 8 31 0 11-3 22-9 31-6 9-16 15-29 15l0 0 0 0c-4 0-9 0-14 0 3 7 5 15 5 24l0 0 0 0c0 11-3 21-10 29-6 8-17 13-28 13-68 0-127 0-192 0-3 0-4 0-6 0 3 3 6 6 9 9 10 10 20 20 25 26 12 16 14 37 4 52-6 8-13 14-22 15-1 0-2 0-3 0 0 0-1 0-1 0z m1-22c0 0 0 0 0 0 2 0 4 0 7-5l0 0 0 0c4-6 3-18-3-26l0 0 0 0c-2-3-13-14-23-24-10-10-20-20-25-25-4-6-2-11-1-13 1-3 2-7 9-8 2-1 2-1 2-1 1 0 1 0 2 0 73-1 150 0 217 0l0 0 0 0c6 0 9-1 11-5 3-3 5-8 5-16 0-7-2-14-5-17-2-4-5-6-11-6-51 0-102 0-153 1l0-22c67-1 133-1 200-1 5 0 8-2 11-6 3-4 5-11 5-18l0 0c0-8-2-15-4-19-3-4-5-6-12-6-69 0-136 0-200 0l0-22c57 0 114 0 171 0 6 0 9-3 12-8 4-5 5-13 3-22l0 0 0 0c-1-5-3-9-5-11-2-2-4-3-10-3l-171 0c0-8 0-15 0-22 43 0 86 0 130 0l0 0 0 0c5 0 7-1 9-4 2-2 3-7 3-15l0 0 0 0c0-7-2-11-3-13-2-2-4-3-9-4-91 0-183 0-274 0l0 0 0 0c-22 1-39 6-53 18-13 11-24 28-29 51l0 0 0 0c-4 17-5 30-5 47l0 0c0 24 0 50 6 71 7 21 18 37 33 48l0 0c23 15 124 86 152 104l0 0c3 1 5 2 7 2 0 0 0 0 1 0z" horiz-adv-x="1000" />

<glyph glyph-name="send" unicode="&#xe841;" d="M99 608l401-227 401 227-802 0z m1-84l0-448 802 0 0 448-402-224-400 224z" horiz-adv-x="1000" />

<glyph glyph-name="service" unicode="&#xe842;" d="M413 631c0-19 0-37 0-56-16-4-30-10-44-18l-40 39-74-74 40-40c-8-13-14-28-18-43l-56 0 0-106 56 0c6-20 17-39 28-55l0 91-49-1 0 36 49 0 3 14c4 20 12 40 23 57l8 12-34 35 25 25 34-34 12 8c18 11 38 19 58 24l14 3 0 48 36 0 0-48 14 0 80 0c-9 10-46 24-59 28l0 55c-39 0-70 0-106 0z m100-101l0-55c-16-5-31-11-44-19l-40 40-74-75 39-40c-7-13-13-28-17-43l-57 0 0-106 57 1c5-16 11-30 18-44l-40-40 75-74 41 40c13-8 28-14 44-18l0-57c36 0 74 0 105 0l0 58c16 4 31 10 44 18l41-40 74 75-41 40c8 14 14 28 18 44l56 0 0 105-56 0c-5 16-11 30-19 43l39 39-75 74-39-39c-14 8-28 14-44 18l1 55-106 0z m35-35l36 0-1-48 15-3c20-4 40-12 58-23l11-8 34 34 25-25-33-34 8-12c12-18 20-37 24-57l3-14 49 0 0-35-49-1-3-14c-4-20-12-40-23-57l-8-12 36-35-26-26-35 36-12-8c-18-12-38-20-58-24l-14-3 0-51c-9 0-20 0-35 0l0 50-15 3c-20 4-40 12-58 24l-11 8-36-36-26 25 36 35-8 12c-12 18-20 38-24 58l-3 14-50-1 0 36 50 0 3 14c4 21 12 40 23 58l8 12-35 34 25 25 35-34 12 8c18 12 37 19 58 24l14 3 0 48z m18-128c-43 0-79-36-79-79 0-44 36-79 79-79 43 0 79 35 79 79 0 43-36 79-79 79z m0-35c25 0 44-20 44-44 0-25-19-44-44-44-24 0-44 19-44 44 0 24 20 44 44 44z" horiz-adv-x="1000" />

<glyph glyph-name="receive-task" unicode="&#xe843;" d="M215 745c-107 0-195-87-195-194l0-402c0-107 88-194 195-194l570 0c108 0 195 87 195 194l0 402c0 107-87 194-195 194l-570 0z m0-60l570 0c75 0 135-59 135-134l0-402c0-75-60-134-135-134l-570 0c-75 0-135 59-135 134l0 402c0 75 60 134 135 134z m-38-83l0-347 526 0 0 347-526 0z m54-23l418 0-209-137-209 137z m-31-6l240-158 241 158 0-295-481 0 0 295z" horiz-adv-x="1000" />

<glyph glyph-name="user" unicode="&#xe844;" d="M496 668c-89 0-152-69-152-146l0 0 0 0c0-24 6-48 16-71 7-16 16-31 27-43-65-22-140-58-178-130l-2-4 0-231 578 0 0 231-2 4c-37 71-111 107-175 129 31 32 40 73 40 115l0 0 0 0c0 77-63 146-152 146z m-61-83c5 0 9 0 14-1 39-2 53-9 63-16 10-6 17-13 44-14l0 0 0 0c21 1 32 5 39 9 3 2 5 4 8 5 7-14 10-30 10-46 0-47-8-80-51-106l4-32c9-3 19-6 28-9 1-5 3-13 4-20 1-8 1-16 1-23-1-6-3-9-3-10-22-21-61-34-100-34-39 0-78 13-100 34 0 1-2 4-3 10 0 7 0 15 1 23 1 7 3 15 4 20 9 3 19 6 27 9l3 34c-2 2-4 4-7 6-9 7-21 23-29 41-8 19-13 40-13 57 0 20 5 39 15 56 2 1 4 1 6 2 7 3 18 5 35 5z m-75-225c0 0 0 0 0-1-2-9-2-20-1-30 1-11 4-22 13-31 31-31 78-45 124-45 46 0 93 14 124 45 10 9 12 20 13 31 2 10 1 21-1 30 0 1 0 1 0 1 48-21 93-50 118-95l0-187-83 0 0 132-35 0 0-132-272 0 0 132-35 0 0-132-83 0 0 187c25 45 70 74 118 95z" horiz-adv-x="1000" />

<glyph glyph-name="start-event-none" unicode="&#xe845;" d="M496 802c-176 0-345-113-412-276-70-161-34-362 89-487 119-128 314-175 477-115 169 58 294 224 301 403 12 176-92 351-250 428-62 31-132 47-201 47-1 0-3 0-4 0z m12-49c173-1 335-126 380-293 47-159-17-344-155-439-143-105-354-97-489 18-136 109-185 309-115 468 60 147 212 248 371 246 3 0 6 0 8 0z" horiz-adv-x="1000" />

<glyph glyph-name="intermediate-event-throw-escalation" unicode="&#xe846;" d="M499 802c-220 4-425-177-448-396-24-185 78-380 247-461 160-80 368-56 501 66 134 118 190 318 128 486-57 167-217 293-393 303-12 1-23 2-35 2z m-5-49c202 7 391-161 407-362 19-178-92-361-262-420-166-61-368-2-468 145-103 144-99 356 18 490 74 90 188 146 305 147z m8-44c-186 6-358-158-361-344-9-169 116-334 283-367 155-33 328 46 397 190 71 140 39 327-83 430-64 57-150 91-236 91z m-2-48c164 4 314-144 311-308 3-152-119-297-272-312-143-19-295 73-336 213-43 134 14 295 138 364 48 28 103 43 159 43z m0-111c-47-131-77-268-124-400 43 43 81 91 124 135 42-45 83-90 125-135-43 133-83 267-125 400z" horiz-adv-x="1000" />

<glyph glyph-name="intermediate-event-catch-multiple" unicode="&#xe847;" d="M499 802c-220 4-425-177-448-396-24-185 78-380 247-461 160-80 368-56 501 66 134 118 190 318 128 486-57 167-217 293-393 303-12 1-23 2-35 2z m-5-49c202 7 391-161 407-362 19-178-92-361-262-420-166-61-368-2-468 145-103 144-99 356 18 490 74 90 188 146 305 147z m8-44c-186 6-358-158-361-344-9-169 116-334 283-367 155-33 328 46 397 190 71 140 39 327-83 430-64 57-150 91-236 91z m-2-48c164 4 314-144 311-308 3-152-119-297-272-312-143-19-295 73-336 213-43 134 14 295 138 364 48 28 103 43 159 43z m0-87c-72-52-143-104-215-156 27-84 55-169 82-253 89 0 177 0 266 0 28 84 55 169 82 253-71 52-143 104-215 156z m0-30c62-45 124-90 187-135-24-74-48-147-72-220-77 0-153 0-230 0-24 73-48 146-72 220 63 45 125 90 187 135z" horiz-adv-x="1000" />

<glyph glyph-name="intermediate-event-catch-non-interrupting-escalation" unicode="&#xe848;" d="M500 550c-47-131-77-268-124-400 43 43 81 91 124 135 42-45 83-90 125-135-43 133-83 267-125 400z m1-83c23-73 45-146 68-219-22 24-45 49-68 74-19-17-69-82-66-68 24 70 41 143 66 213z m-1 335c-41-1-83-5-121-18-25-13-8-53 18-44 64 17 131 17 196 3 26-3 34 38 9 47-33 8-68 12-102 12z m255-83c-26 3-36-36-13-47 52-38 93-90 121-147 15-22 52-3 43 22-32 67-82 127-143 170-2 1-5 2-8 2z m-519-10c-22-2-35-23-51-36-42-40-76-89-98-142-8-26 30-42 44-19 27 61 69 115 122 157 13 14 2 40-17 40z m264 0c-20-2-48 4-57-18-8-21 15-38 34-32 51 4 103-5 149-25 26-8 42 31 19 44-45 21-95 31-145 31z m-155-39c-23-4-43-21-62-34-34-27-66-58-86-96-10-26 30-44 43-21 30 47 74 83 121 110 16 14 5 41-16 41z m393-59c-25 2-35-33-14-46 37-38 62-87 77-137 14-24 53-6 44 20-17 60-49 115-94 158-4 3-8 4-13 5z m-564-171c-23 2-28-24-30-41-7-55-2-112 16-163 12-24 51-11 46 15-17 53-20 110-10 164 1 13-10 24-22 25z m754-46c-21 1-29-22-25-39 1-68-16-135-47-195-9-25 29-43 43-21 39 72 57 155 52 237-3 10-13 18-23 18z m-853-16c-22 2-30-22-26-39 1-69 18-137 51-197 15-22 52-2 42 23-30 59-46 126-45 193-2 11-11 19-22 20z m756-57c-22 2-27-22-28-39-10-48-34-91-63-130-12-25 26-47 42-24 38 49 65 108 73 170-1 12-11 23-24 23z m-590-160c-22-1-30-32-13-45 40-46 90-82 147-102 26-6 40 33 17 45-52 20-98 53-134 96-4 4-10 6-17 6z m426-77c-23-5-43-21-66-27-34-13-71-15-106-19-25-9-16-49 10-47 62 1 124 18 177 50 17 14 7 44-15 43z m-440-39c-23-1-31-35-11-46 56-45 123-78 194-91 26-2 35 39 9 47-65 14-127 44-179 87-4 2-8 3-13 3z m543-3c-22-2-36-24-55-32-43-29-92-45-141-57-24-12-10-52 17-46 71 15 140 47 196 95 14 15 2 40-17 40z" horiz-adv-x="1000" />

<glyph glyph-name="intermediate-event-throw-link" unicode="&#xe849;" d="M499 802c-220 4-425-177-448-396-24-185 78-380 247-461 160-80 368-56 501 66 134 118 190 318 128 486-57 167-217 293-393 303-12 1-23 2-35 2z m-5-49c202 7 391-161 407-362 19-178-92-361-262-420-166-61-368-2-468 145-103 144-99 356 18 490 74 90 188 146 305 147z m8-44c-186 6-358-158-361-344-9-169 116-334 283-367 155-33 328 46 397 190 71 140 39 327-83 430-64 57-150 91-236 91z m-2-48c164 4 314-144 311-308 3-152-119-297-272-312-143-19-295 73-336 213-43 134 14 295 138 364 48 28 103 43 159 43z m50-116c0-33 0-67 0-100-75 0-150 0-226 0 0-63 0-127 0-190 76 0 151 0 226 0 0-33 0-67 0-100 55 65 110 130 165 195-55 65-110 130-165 195z" horiz-adv-x="1000" />

<glyph glyph-name="start-event-non-interrupting-condition" unicode="&#xe84a;" d="M349 540l0-12 0-368 50 0 202 0 50 0 0 380-302 0z m24-24l254 0 0-332-26 0-202 0-26 0 0 332z m26-37l0-25 202 0 0 25-202 0z m0-74l0-24 202 0 0 24-202 0z m0-85l0-24 202 0 0 24-202 0z m0-77l0-24 202 0 0 24-202 0z m105 557l-7 0 0 0 0 0-6 0 0 0 0 0-7 0 0 0 0 0-6-1 0 0-1 0-6 0 0 0 0 0-6 0-1 0 0 0-6-1 0 0 0 0-6-1-1 0 0 0-6 0 0 0 0 0-6-1-1 0 0 0-6-1 0 0 0 0-6-1-1 0 0 0-6-1 0 0 0 0-6-1-1 0 0 0-6-1 0-1 0 0-6-1 0 0-1 0-6-1 0 0 0 0-6-2 0 0 0 0-4-1-4-1-4-2-3-3-3-4-2-4-2-4 0-5 0-4 1-5 2-4 3-4 3-3 4-2 5-2 4-1 5 0 3 1 3 1 6 1 6 1 6 2 5 1 6 1 6 1 6 1 6 0 6 1 5 1 6 0 6 1 6 0 6 1 6 0 6 0 6 0 6 0 6 0 5 0 6 0 6-1 6 0 6-1 6 0 6-1 5 0 6-1 6-1 6-1 6-1 5-1 2 0 4-1 5 0 4 2 4 2 4 2 3 4 3 3 1 5 1 4 0 5-1 4-1 4-3 4-3 4-3 2-5 2-3 1-2 1 0 0 0 0-6 1 0 0-1 0-6 1 0 0 0 0-6 1 0 0-1 0-6 1 0 0 0 0-6 1 0 0 0 0-7 1 0 0 0 0-6 0 0 1-1 0-6 0 0 0 0 0-6 1 0 0-1 0-6 0 0 0 0 0-6 0-1 0 0 0-6 1 0 0 0 0-6 0-1 0 0 0-6 0 0 0z m246-79l-5-1-4-1-4-3-3-3-3-4-1-4-2-4 0-5 1-4 1-5 2-4 3-3 3-3 2-1 0 0 2-2 0 0 3-1 0 0 2-2 0 0 2-2 2-2 0 0 3-2 0 0 2-1 2-2 0 0 2-2 3-2 0 0 2-2 2-2 0 0 2-2 2-2 1 0 2-2 2-2 2-2 0 0 2-2 0 0 2-2 0 0 2-2 2-2 0 0 2-3 0 0 2-2 2-2 0 0 2-2 2-2 0 0 2-3 0 0 2-2 2-2 2-2 0 0 2-3 2-2 2-2 0-1 1-2 0 0 2-2 0 0 2-3 0 0 1 0 2-4 3-3 2-4 3-3 2-3 3-4 2-3 2-4 0 0 3-3 2-4 2-4 3-3 2-4 2-3 2-4 2-4 2-3 2-4 2-4 1-2 3-4 3-4 3-2 4-2 5-2 4 0 5 1 4 1 4 2 4 3 3 3 2 4 2 4 0 5 0 5-1 4-1 3-2 3 0 0 0 0-2 4 0 0 0 1-2 4 0 0 0 0-2 4 0 0 0 0-2 4-1 0 0 0-2 4 0 0 0 0-2 4 0 0 0 0-3 4 0 0 0 0-2 4 0 0 0 0-3 4 0 0 0 0-2 4 0 0 0 0-3 4 0 0 0 0-2 4 0 0-1 0-2 4 0 0 0 0-3 4 0 0 0 0-3 4 0 0 0 0-2 3 0 1-1 0-2 3 0 0 0 0-3 4 0 0 0 0-3 3-2 3 0 0 0 0-2 3 0 0 0 0-2 2 0 0 0 0-2 3 0 0 0 0-2 3 0 0 0 0-2 2 0 0 0 0-2 3 0 0 0 0-3 3 0 0 0 0-2 2 0 0 0 0-2 3 0 0 0 0-2 2 0 0 0 0-3 3 0 0 0 0-2 2 0 0 0 0-2 3 0 0 0 0-2 2-1 0 0 0-2 3 0 0 0 0-2 2 0 0 0 0-3 3 0 0 0 0-2 2 0 0 0 0-2 2 0 0-1 0-2 3 0 0 0 0-2 2 0 0 0 0-3 2 0 0 0 0-2 2 0 0 0 0-3 3 0 0 0 0-2 2 0 0 0 0-3 2 0 0 0 0-2 2 0 0 0 0-3 2 0 0 0 0-2 2-1 0 0 1-2 1 0 1 0 0-3 2 0 0 0 0-2 2 0 0 0 0-3 2 0 0 0 0-3 2 0 0 0 0-2 2 0 0 0 0-2 1-4 2-4 2-5 0z m-521-12l-5-1-4-2-3-2 0 0 0 0-1 0-2-2 0 0 0 0-3-2 0 0 0 0-2-2 0 0 0 0-3-2 0 0 0 0-2-2 0 0 0-1-3-2 0 0 0 0-2-2 0 0 0 0-3-2 0 0 0 0-2-2 0 0 0 0-3-2 0-1 0 0-2-2 0 0 0 0-2-2 0 0-1 0-2-2 0 0 0-1-2-2 0 0 0 0-3-2 0 0 0 0-2-3 0 0 0 0-2-2 0 0 0 0-2-2-1 0 0-1-2-2 0 0 0 0-2-2 0 0 0-1-2-2 0 0 0 0-2-2-1 0 0-1-2-2 0 0 0 0-2-3 0 0 0 0-2-2 0 0 0 0-2-3 0 0 0 0-2-2 0 0 0-1-2-2-1 0 0 0-2-3 0 0 0 0-2-2 0 0 0-1-2-2 0 0 0 0-2-3 0 0 0 0-2-3 0 0 0 0-2-2 0-1 0 0-2-2 0 0 0 0-2-3 0 0 0 0-2-3 0 0 0 0-1-3 0 0-1 0-1-3 0 0 0 0-2-2-1-2 0 0 0 0-2-3 0 0 0 0-2-2 0-1 0 0-2-2 0 0 0 0-2-3 0 0 0 0-2-3 0 0 0 0-2-3 0 0 0 0-2-3 0 0 0 0-2-3 0 0 0 0-1-3 0 0 0 0-2-2 0-1 0 0-2-2 0 0 0-1-2-2 0 0 0 0-1-3 0 0 0 0-2-3 0 0 0 0-2-3 0 0 0 0-1-3 0 0 0 0-2-3 0 0 0 0-1-3 0 0 0 0-2-3 0 0 0 0-1-3 0 0 0 0-2-3 0 0 0 0-1-3 0 0 0 0-2-3 0 0 0 0 0-1-2-4 0-5 0-4 1-5 2-4 2-4 4-3 3-3 5-1 4-1 5-1 4 1 4 2 4 2 4 3 3 3 1 4 1 0 1 3 1 3 0 0 1 2 0 0 2 3 1 3 0 0 2 2 0 0 1 3 1 2 0 1 2 2 1 3 0 0 2 2 0 0 1 3 2 2 0 0 1 3 2 2 1 3 0 0 2 3 0 0 2 2 0 0 1 2 2 3 2 2 0 0 1 3 2 2 2 3 1 1 0 0 2 3 1 2 0 0 2 3 2 2 0 0 1 3 2 2 0 0 2 3 0 0 2 2 1 3 2 2 0 0 2 2 2 3 2 2 0 0 2 2 1 3 2 2 0 0 2 2 2 2 0 0 2 3 0 0 2 2 0 0 2 2 0 0 2 2 2 2 0 0 2 2 0 0 2 3 0 0 2 2 2 2 0 0 2 2 3 2 0 0 2 2 2 2 0 0 2 2 0 0 2 2 0 0 2 2 0 0 3 1 0 0 2 2 0 0 2 2 0 0 2 2 3 2 0 0 2 2 0 0 0 0 3 3 3 4 2 4 1 4 0 5 0 4-2 5-2 4-3 3-3 3-4 2-4 2-5 1z m694-313l-4-1-5-2-3-2-3-4-3-4-2-4-1-4 0-4 1-4 0-4 0-4 0-5 0-4 0 0 0-1 0-3 0-3 0 0 0-3 0 0 0-3 0-3 0 0 0-3 0 0 0-3 0-3 0-3 0-3 0-3-1-3 0-3 0 0 0-3 0 0 0-3-1-3 0-3 0-3-1-2 0-1 0-3 0 0 0-2-1-3 0-3 0 0-1-3 0-3-1-3 0 0 0-3-1-3-1-3 0 0 0-2-1-3 0 0 0-3-1-3 0 0-1-3-1-3 0 0 0-2 0 0-1-3 0 0-1-3 0 0-1-3 0 0-1-3-1-2 0 0 0-3-1-3 0 0-1-3 0 0-1-2 0-1-1-2 0 0-1-3 0 0-1-3-1-2 0 0-1-3-3-5-2-6-2-5-3-5-2-6-3-5-3-5-1-3-2-4-1-4 0-5 1-4 1-5 3-4 3-3 3-3 4-2 5-1 4-1 5 1 4 1 4 2 4 3 3 3 2 3 1 3 1 0 0 0 3 6 0 0 0 0 2 6 1 0 0 0 2 6 0 0 0 0 3 5 0 1 0 0 3 5 0 1 0 0 2 6 0 0 1 0 2 6 0 0 0 0 1 3 0 0 0 0 1 3 0 0 0 0 1 3 0 0 1 0 1 3 0 0 0 0 1 3 0 0 0 0 1 3 0 0 0 0 1 3 0 0 0 1 1 3 0 0 0 0 1 3 0 0 0 0 1 3 0 0 0 0 1 3 0 0 0 0 1 3 0 0 0 0 1 3 0 0 0 1 1 3 0 0 0 0 1 3 0 0 0 0 0 3 0 0 0 0 1 3 0 0 0 0 1 3 0 1 0 0 1 3 0 0 0 0 0 3 0 0 1 0 0 3 0 0 0 0 1 3 0 1 0 0 1 3 0 0 0 0 0 3 0 0 0 0 1 3 0 0 0 0 0 4 0 0 0 0 1 3 0 0 0 0 0 3 0 0 0 0 1 4 0 0 0 0 0 3 0 0 0 0 1 3 0 0 0 0 0 4 0 0 0 0 1 3 0 0 0 0 0 3 0 0 0 0 0 4 0 0 0 0 1 3 0 0 0 0 0 3 0 0 0 1 0 3 0 0 0 0 0 3 0 0 0 0 0 4 0 0 0 0 1 3 0 0 0 0 0 3 0 0 0 1 0 3 0 0 0 0 0 3 0 0 0 0 0 4 0 0 0 0 0 3 0 0 0 0 0 4 0 0 0 0 0 3 0 0 0 0 0 3 0 1 0 0 0 3 0 4 0 0 0 0 0 4 0 0 0 1 0 4 0 0 0 0-1 5 0 0 0 0 0 4 0 5-2 4-2 4-3 4-4 2-4 3-4 1-4 1z m-853-18l-4-1-5-2-3-3-4-3-2-4-2-4-1-4 0-4 0-3 0 0 0 0 0-7 0 0 0 0 0-6 0 0 0 0 0-7 0 0 0 0 1-6 0 0 0-1 0-6 0 0 0 0 1-6 0 0 0-1 1-6 0 0 0 0 1-6 0 0 0-1 0-6 0 0 0 0 1-6 0 0 0-1 1-6 1 0 0 0 1-6 0 0 0-1 1-6 0 0 0 0 1-6 0 0 0 0 2-6 0-1 0 0 1-6 0 0 0 0 2-6 0 0 0-1 2-6 0 0 0 0 1-6 0 0 0 0 2-6 0 0 0 0 2-6 0-1 0 0 2-6 0 0 0 0 2-6 0 0 0 0 2-6 1 0 0 0 2-6 0 0 0 0 2-6 0 0 0-1 3-5 0-1 0 0 2-5 0-1 0 0 3-5 0-1 0 0 2-5 0-1 1 0 2-5 0-1 0 0 3-5 0 0 0-1 1-1 2-4 4-4 3-2 4-2 5-1 4-1 5 1 4 1 4 2 4 3 3 3 2 4 2 5 0 4 0 5-1 4-1 4-1 1-3 5-2 6-3 5-2 6-2 5-2 5-3 6-2 6-2 5-1 6-2 5-2 6-2 6-1 5-2 6-1 6-2 5-1 6-1 6-1 6-1 6-1 5-1 6-1 6-1 6 0 6-1 5 0 6-1 6 0 6 0 6-1 6 0 3 0 4-1 5-3 4-2 3-4 3-4 3-4 1-4 1z m694-334l-4-1-4-2-4-3 0 0-5-3-4-4-5-4-5-3-5-3-4-4-5-3-5-3-5-3-5-4-5-3-6-3-5-2-5-3-5-3-5-3-6-2-5-3-5-2-6-2-5-3-6-2-5-2-6-2-5-2-6-2-5-2-6-1-5-2-6-2-6-1-5-1-5-1-4-2-4-2-4-3-2-3-3-4-1-5-1-4 1-5 1-4 2-4 2-4 3-3 4-3 4-1 5-1 4-1 4 1 5 1 0 0 0 0 6 2 0 0 0 0 6 1 1 0 0 0 6 2 0 0 0 0 6 2 0 0 0 0 6 2 0 0 1 0 5 2 1 0 0 0 6 2 0 0 0 0 6 2 0 0 0 0 6 2 0 0 0 0 6 3 0 0 0 0 6 2 0 0 1 0 5 3 0 0 1 0 5 2 0 0 1 0 5 3 0 0 1 0 5 3 0 0 1 0 5 3 0 0 0 0 6 3 0 0 0 0 6 3 0 0 0 0 6 3 0 0 0 0 5 3 0 0 1 0 5 3 0 0 0 0 6 3 0 1 0 0 5 3 0 0 1 0 5 3 0 0 0 1 5 3 0 0 1 0 5 4 0 0 0 0 5 3 0 0 0 0 6 4 0 0 0 0 5 4 0 0 0 0 5 4 0 0 0 0 5 4 0 0 1 0 4 4 1 0 0 0 0 1 3 3 3 4 2 4 1 4 0 5 0 4-2 4-2 4-3 4-4 3-4 2-4 1-4 1z m-541-2l-4-1-4-3-4-2-3-4-2-4-1-4-1-5 0-4 1-5 2-4 3-4 3-2 1-1 0-1 0 0 5-4 0 0 0 0 5-4 0 0 0 0 3-2 0 0 0 0 2-2 1 0 0 0 2-2 0 0 0 0 3-2 0 0 0 0 2-2 1 0 0 0 2-2 0 0 0 0 3-2 0 0 0 0 3-1 0-1 0 0 2-1 0 0 0 0 3-2 0 0 0 0 3-2 0 0 0 0 3-2 0 0 0 0 2-2 0 0 1 0 2-1 0 0 0 0 3-2 0 0 0 0 3-2 0 0 0 0 3-1 0 0 0-1 3-1 0 0 0 0 3-2 0 0 0 0 2-1 1 0 0 0 2-2 1 0 0 0 2-2 0 0 1 0 2-1 0 0 1 0 2-2 0 0 0 0 3-1 0 0 0 0 3-2 0 0 1 0 2-1 0 0 1 0 2-1 0-1 1 0 2-1 1 0 0 0 3-1 0 0 0 0 3-2 0 0 0 0 3-1 0 0 0 0 3-1 0 0 0 0 3-2 0 0 0 0 3-1 0 0 0 0 3-1 0 0 0 0 3-1 1 0 0 0 3-1 0 0 0 0 3-2 0 0 0 0 3-1 0 0 0 0 3-1 0 0 1 0 3-1 0 0 0 0 3-1 0 0 0 0 3-1 0 0 0 0 3-1 0 0 1 0 3-1 0 0 0 0 3-1 0 0 0 0 3-1 2 0 0 0 0 0 3-1 0 0 0-1 3-1 1 0 0 0 3-1 0 0 0 0 3-1 0 0 0 0 3-1 0 0 0 0 4 0 0-1 0 0 3 0 0 0 0 0 3-1 0 0 0 0 3-1 1 0 0 0 3-1 0 0 0 0 3-1 0 0 0 0 0 0 5 0 4 0 5 1 4 2 4 2 3 4 2 3 2 5 1 4 0 5 0 4-2 4-2 4-3 4-4 2-4 3-3 1 0 0-1 0-3 0-2 1 0 0-3 1 0 0-3 1 0 0-3 0 0 0-3 1-3 1-3 1 0 0-3 1-2 1-3 1-3 1-1 0-1 0-3 1-3 1-3 1 0 0-2 1-3 1-3 1-3 0-3 1 0 0-3 1-3 1-2 1 0 0-3 2-3 1 0 0-3 1 0 0-2 1-3 1 0 0-3 1-3 1-2 2-3 1 0 0-3 1-2 1-3 2-3 1-2 1 0 0-3 2-2 1 0 0-3 1 0 0-3 2 0 0-2 1-2 2-1 0-2 1 0 0-3 2-2 1 0 0-3 2-2 1 0 0-3 2 0 0-2 2 0 0-2 1-3 2 0 0-2 2-2 1-1 0-2 2 0 0-2 2-3 1 0 0-2 2 0 0-2 2 0 0-3 2-4 3-5 4-1 1-4 3-4 1-4 2-5 0z" horiz-adv-x="1000" />

<glyph glyph-name="data-object" unicode="&#xe84b;" d="M626 746c-143 0-286 0-429 0 0-264 0-528 0-792 202 0 404 0 606 0 0 203 0 407 0 610-59 61-118 121-177 182z m-52-45c0-62 0-124 0-186 61 0 123 0 184 0 0-172 0-344 0-516-172 0-344 0-516 0 0 234 0 468 0 702 110 0 221 0 332 0z m45-12c42-43 83-86 125-129-42 0-83 0-125 0 0 43 0 86 0 129z" horiz-adv-x="1000" />

</font>
</defs>
</svg>
